  0
SECTION
  2
HEADER
  9
$ACADVER
  1
AC1018
  9
$ACADMAINTVER
 70
   104
  9
$DWGCODEPAGE
  3
ANSI_1252
  9
$LASTSAVEDBY
  1
User
  9
$INSBASE
 10
0.0
 20
0.0
 30
0.0
  9
$EXTMIN
 10
-237.0013502085413
 20
-17.57878270772169
 30
-0.0000000000000007
  9
$EXTMAX
 10
12.00000000000003
 20
112.0232668264079
 30
0.0000000000000133
  9
$LIMMIN
 10
0.0
 20
0.0
  9
$LIMMAX
 10
420.0
 20
297.0
  9
$ORTHOMODE
 70
     0
  9
$REGENMODE
 70
     1
  9
$FILLMODE
 70
     1
  9
$QTEXTMODE
 70
     0
  9
$MIRRTEXT
 70
     1
  9
$LTSCALE
 40
1.0
  9
$ATTMODE
 70
     1
  9
$TEXTSIZE
 40
2.5
  9
$TRACEWID
 40
1.0
  9
$TEXTSTYLE
  7
Standard
  9
$CLAYER
  8
0
  9
$CELTYPE
  6
ByLayer
  9
$CECOLOR
 62
   256
  9
$CELTSCALE
 40
1.0
  9
$DISPSILH
 70
     1
  9
$DIMSCALE
 40
1.0
  9
$DIMASZ
 40
2.5
  9
$DIMEXO
 40
0.625
  9
$DIMDLI
 40
3.75
  9
$DIMRND
 40
0.0
  9
$DIMDLE
 40
0.0
  9
$DIMEXE
 40
1.25
  9
$DIMTP
 40
0.0
  9
$DIMTM
 40
0.0
  9
$DIMTXT
 40
2.5
  9
$DIMCEN
 40
2.5
  9
$DIMTSZ
 40
0.0
  9
$DIMTOL
 70
     0
  9
$DIMLIM
 70
     0
  9
$DIMTIH
 70
     0
  9
$DIMTOH
 70
     0
  9
$DIMSE1
 70
     0
  9
$DIMSE2
 70
     0
  9
$DIMTAD
 70
     1
  9
$DIMZIN
 70
     8
  9
$DIMBLK
  1

  9
$DIMASO
 70
     1
  9
$DIMSHO
 70
     1
  9
$DIMPOST
  1

  9
$DIMAPOST
  1

  9
$DIMALT
 70
     0
  9
$DIMALTD
 70
     3
  9
$DIMALTF
 40
0.03937007874016
  9
$DIMLFAC
 40
1.0
  9
$DIMTOFL
 70
     1
  9
$DIMTVP
 40
0.0
  9
$DIMTIX
 70
     0
  9
$DIMSOXD
 70
     0
  9
$DIMSAH
 70
     0
  9
$DIMBLK1
  1

  9
$DIMBLK2
  1

  9
$DIMSTYLE
  2
ISO-25
  9
$DIMCLRD
 70
     0
  9
$DIMCLRE
 70
     0
  9
$DIMCLRT
 70
     0
  9
$DIMTFAC
 40
1.0
  9
$DIMGAP
 40
0.625
  9
$DIMJUST
 70
     0
  9
$DIMSD1
 70
     0
  9
$DIMSD2
 70
     0
  9
$DIMTOLJ
 70
     0
  9
$DIMTZIN
 70
     8
  9
$DIMALTZ
 70
     0
  9
$DIMALTTZ
 70
     0
  9
$DIMUPT
 70
     0
  9
$DIMDEC
 70
     2
  9
$DIMTDEC
 70
     2
  9
$DIMALTU
 70
     2
  9
$DIMALTTD
 70
     3
  9
$DIMTXSTY
  7
Standard
  9
$DIMAUNIT
 70
     0
  9
$DIMADEC
 70
     0
  9
$DIMALTRND
 40
0.0
  9
$DIMAZIN
 70
     0
  9
$DIMDSEP
 70
    44
  9
$DIMATFIT
 70
     3
  9
$DIMFRAC
 70
     0
  9
$DIMLDRBLK
  1

  9
$DIMLUNIT
 70
     2
  9
$DIMLWD
 70
    -2
  9
$DIMLWE
 70
    -2
  9
$DIMTMOVE
 70
     0
  9
$LUNITS
 70
     2
  9
$LUPREC
 70
     4
  9
$SKETCHINC
 40
1.0
  9
$FILLETRAD
 40
1.0
  9
$AUNITS
 70
     0
  9
$AUPREC
 70
     0
  9
$MENU
  1
.
  9
$ELEVATION
 40
0.0
  9
$PELEVATION
 40
0.0
  9
$THICKNESS
 40
0.0
  9
$LIMCHECK
 70
     0
  9
$CHAMFERA
 40
10.0
  9
$CHAMFERB
 40
10.0
  9
$CHAMFERC
 40
20.0
  9
$CHAMFERD
 40
0.0
  9
$SKPOLY
 70
     0
  9
$TDCREATE
 40
2453558.498713646
  9
$TDUCREATE
 40
2453558.165380313
  9
$TDUPDATE
 40
2454313.744865810
  9
$TDUUPDATE
 40
2454313.411532477
  9
$TDINDWG
 40
0.1814465972
  9
$TDUSRTIMER
 40
0.1814449653
  9
$USRTIMER
 70
     1
  9
$ANGBASE
 50
0.0
  9
$ANGDIR
 70
     0
  9
$PDMODE
 70
     0
  9
$PDSIZE
 40
0.0
  9
$PLINEWID
 40
0.0
  9
$SPLFRAME
 70
     0
  9
$SPLINETYPE
 70
     6
  9
$SPLINESEGS
 70
 20000
  9
$HANDSEED
  5
B83
  9
$SURFTAB1
 70
     6
  9
$SURFTAB2
 70
     6
  9
$SURFTYPE
 70
     6
  9
$SURFU
 70
     6
  9
$SURFV
 70
     6
  9
$UCSBASE
  2

  9
$UCSNAME
  2

  9
$UCSORG
 10
0.0
 20
0.0
 30
0.0
  9
$UCSXDIR
 10
1.0
 20
0.0
 30
0.0
  9
$UCSYDIR
 10
0.0
 20
1.0
 30
0.0
  9
$UCSORTHOREF
  2

  9
$UCSORTHOVIEW
 70
     1
  9
$UCSORGTOP
 10
0.0
 20
0.0
 30
0.0
  9
$UCSORGBOTTOM
 10
0.0
 20
0.0
 30
0.0
  9
$UCSORGLEFT
 10
0.0
 20
0.0
 30
0.0
  9
$UCSORGRIGHT
 10
0.0
 20
0.0
 30
0.0
  9
$UCSORGFRONT
 10
0.0
 20
0.0
 30
0.0
  9
$UCSORGBACK
 10
0.0
 20
0.0
 30
0.0
  9
$PUCSBASE
  2

  9
$PUCSNAME
  2

  9
$PUCSORG
 10
0.0
 20
0.0
 30
0.0
  9
$PUCSXDIR
 10
1.0
 20
0.0
 30
0.0
  9
$PUCSYDIR
 10
0.0
 20
1.0
 30
0.0
  9
$PUCSORTHOREF
  2

  9
$PUCSORTHOVIEW
 70
     0
  9
$PUCSORGTOP
 10
0.0
 20
0.0
 30
0.0
  9
$PUCSORGBOTTOM
 10
0.0
 20
0.0
 30
0.0
  9
$PUCSORGLEFT
 10
0.0
 20
0.0
 30
0.0
  9
$PUCSORGRIGHT
 10
0.0
 20
0.0
 30
0.0
  9
$PUCSORGFRONT
 10
0.0
 20
0.0
 30
0.0
  9
$PUCSORGBACK
 10
0.0
 20
0.0
 30
0.0
  9
$USERI1
 70
     0
  9
$USERI2
 70
     0
  9
$USERI3
 70
     0
  9
$USERI4
 70
     0
  9
$USERI5
 70
     0
  9
$USERR1
 40
0.0
  9
$USERR2
 40
0.0
  9
$USERR3
 40
0.0
  9
$USERR4
 40
0.0
  9
$USERR5
 40
0.0
  9
$WORLDVIEW
 70
     1
  9
$SHADEDGE
 70
     3
  9
$SHADEDIF
 70
    70
  9
$TILEMODE
 70
     1
  9
$MAXACTVP
 70
    64
  9
$PINSBASE
 10
0.0
 20
0.0
 30
0.0
  9
$PLIMCHECK
 70
     0
  9
$PEXTMIN
 10
0.0
 20
0.0
 30
0.0
  9
$PEXTMAX
 10
0.0
 20
0.0
 30
0.0
  9
$PLIMMIN
 10
0.0
 20
0.0
  9
$PLIMMAX
 10
12.0
 20
9.0
  9
$UNITMODE
 70
     0
  9
$VISRETAIN
 70
     1
  9
$PLINEGEN
 70
     0
  9
$PSLTSCALE
 70
     1
  9
$TREEDEPTH
 70
  3020
  9
$CMLSTYLE
  2
Standard
  9
$CMLJUST
 70
     0
  9
$CMLSCALE
 40
20.0
  9
$PROXYGRAPHICS
 70
     1
  9
$MEASUREMENT
 70
     1
  9
$CELWEIGHT
370
    -1
  9
$ENDCAPS
280
     0
  9
$JOINSTYLE
280
     0
  9
$LWDISPLAY
290
     0
  9
$INSUNITS
 70
     4
  9
$HYPERLINKBASE
  1

  9
$STYLESHEET
  1

  9
$XEDIT
290
     1
  9
$CEPSNTYPE
380
     0
  9
$PSTYLEMODE
290
     1
  9
$FINGERPRINTGUID
  2
{FDEAD578-A652-11D2-9A35-0060089B3A3F}
  9
$VERSIONGUID
  2
{0C98FF0E-3A2C-4AA8-B6D7-98D3AE4EE253}
  9
$EXTNAMES
290
     1
  9
$PSVPSCALE
 40
0.0
  9
$OLESTARTUP
290
     0
  9
$SORTENTS
280
   127
  9
$INDEXCTL
280
     0
  9
$HIDETEXT
280
     1
  9
$XCLIPFRAME
290
     0
  9
$HALOGAP
280
     0
  9
$OBSCOLOR
 70
   257
  9
$OBSLTYPE
280
     0
  9
$INTERSECTIONDISPLAY
280
     0
  9
$INTERSECTIONCOLOR
 70
   257
  9
$DIMASSOC
280
     2
  9
$PROJECTNAME
  1

  0
ENDSEC
  0
SECTION
  2
CLASSES
  0
CLASS
  1
ACDBDICTIONARYWDFLT
  2
AcDbDictionaryWithDefault
  3
ObjectDBX Classes
 90
        0
 91
        1
280
     0
281
     0
  0
CLASS
  1
DICTIONARYVAR
  2
AcDbDictionaryVar
  3
ObjectDBX Classes
 90
        0
 91
        5
280
     0
281
     0
  0
CLASS
  1
DIMASSOC
  2
AcDbDimAssoc
  3
"AcDbDimAssoc|Product Desc:     AcDim ARX App For Dimension|Company:          Autodesk, Inc.|WEB Address:      www.autodesk.com"
 90
        0
 91
        3
280
     0
281
     0
  0
CLASS
  1
MATERIAL
  2
AcDbMaterial
  3
ObjectDBX Classes
 90
     1153
 91
        3
280
     0
281
     0
  0
CLASS
  1
VISUALSTYLE
  2
AcDbVisualStyle
  3
ObjectDBX Classes
 90
     4095
 91
       20
280
     0
281
     0
  0
CLASS
  1
TABLESTYLE
  2
AcDbTableStyle
  3
ObjectDBX Classes
 90
     4095
 91
        1
280
     0
281
     0
  0
CLASS
  1
SOLID_BACKGROUND
  2
AcDbSolidBackground
  3
SCENEOE
 90
     4095
 91
        1
280
     0
281
     0
  0
CLASS
  1
NPOCOLLECTION
  2
AcDbImpNonPersistentObjectsCollection
  3
ObjectDBX Classes
 90
     1153
 91
        1
280
     0
281
     0
  0
CLASS
  1
ACME_DOCUMENT
  2
AcMeDbDoc
  3
AcMeServices
 90
     1024
 91
        2
280
     0
281
     0
  0
CLASS
  1
AMGSETTINGSOBJ
  2
AmgSettingsObj
  3
"AcadM|Product Description: AutoCAD Mechanical|Company: Autodesk, Inc."
 90
     1024
 91
        2
280
     0
281
     0
  0
CLASS
  1
ACMESCOPE
  2
AcMeScope
  3
AcMeServices
 90
     1024
 91
        1
280
     0
281
     0
  0
CLASS
  1
ACMECOMMANDHISTORY
  2
AcMeCommandHistory
  3
AcMeServices
 90
     1024
 91
        1
280
     0
281
     0
  0
CLASS
  1
ACIMSYSVARMAN
  2
AcImSysVarManager
  3
AcMeServices
 90
     1024
 91
        5
280
     0
281
     0
  0
CLASS
  1
ACIMINTSYSVAR
  2
AcImIntSysVar
  3
AcMeServices
 90
     1024
 91
       27
280
     0
281
     0
  0
CLASS
  1
ACMEDRAWINGMAN
  2
AcMeDrawingMan
  3
AcMeServices
 90
     1024
 91
        1
280
     0
281
     0
  0
CLASS
  1
ACMEVIEW
  2
AcMeView
  3
AcMeServices
 90
     1024
 91
        1
280
     0
281
     0
  0
CLASS
  1
ACDBENTITYCACHE
  2
AcMeEntityCache
  3
AcMeServices
 90
     1024
 91
        1
280
     0
281
     0
  0
CLASS
  1
GSMANAGER
  2
AcMeGSManager
  3
AcMeServices
 90
     1024
 91
        1
280
     0
281
     0
  0
CLASS
  1
AMDTINTERNALREACTOR
  2
AmdtInternalReactor
  3
AcMeServices
 90
     1024
 91
        2
280
     0
281
     0
  0
CLASS
  1
ACMESTATEMGR
  2
AcMeStateMgr
  3
AcMeServices
 90
     1024
 91
        1
280
     0
281
     0
  0
CLASS
  1
ACGREFMASTER
  2
AcGrefMaster
  3
AcAttribServices
 90
     1024
 91
        1
280
     0
281
     0
  0
CLASS
  1
AM_DRAWING_MGR
  2
AcDmDwgMgr
  3
AcMechDwgViewMgmt
 90
     1024
 91
        1
280
     0
281
     0
  0
CLASS
  1
AM_DWG_DOCUMENT
  2
AcDmDwgDocument
  3
AcMechDwgViewMgmt
 90
     1024
 91
        1
280
     0
281
     0
  0
CLASS
  1
AM_DWG_SHEET
  2
AcDmSheet
  3
AcMechDwgViewMgmt
 90
     1024
 91
        2
280
     0
281
     0
  0
CLASS
  1
AM_VIEWDIMPARMAP
  2
AcDmViewDimParMap
  3
AcMechDwgViewMgmt
 90
     1024
 91
        2
280
     0
281
     0
  0
CLASS
  1
ACIMREALSYSVAR
  2
AcImRealSysVar
  3
AcMeServices
 90
     1024
 91
        1
280
     0
281
     0
  0
CLASS
  1
AM_DWGMGR_NAME
  2
AcDmDwgMgrName
  3
AcMechDwgViewMgmt
 90
     1024
 91
        1
280
     0
281
     0
  0
CLASS
  1
ACME_DATABASE
  2
AcMeDbDatabase
  3
AcMeServices
 90
     1024
 91
        1
280
     0
281
     0
  0
CLASS
  1
ACRFINSADJUSTERMGR
  2
AcRfInsAdjusterMgr
  3
AcMeServices
 90
     1024
 91
        1
280
     0
281
     0
  0
CLASS
  1
ACGREFACADMASTER
  2
AcGrefacadMaster
  3
AcGrefServices
 90
     1024
 91
        1
280
     0
281
     0
  0
CLASS
  1
AMDTMENUSTATEMGR
  2
AmdtMenuStateMgr
  3
McadcomServices
 90
     1024
 91
        1
280
     0
281
     0
  0
CLASS
  1
AMDTMCOMMENUSTATE
  2
AmdtMcomMenuState
  3
McadcomServices
 90
     1024
 91
        1
280
     0
281
     0
  0
CLASS
  1
AMIMASTER
  2
AmiMaster
  3
AmiServices
 90
     1024
 91
        1
280
     0
281
     0
  0
CLASS
  1
MAPIAMMOUDLE
  2
MApiAmModule
  3
MApiAmServices
 90
     1024
 91
        1
280
     0
281
     0
  0
CLASS
  1
ACIMSTRSYSVAR
  2
AcImStrSysVar
  3
AcMeServices
 90
     1024
 91
        5
280
     0
281
     0
  0
CLASS
  1
AMDTADMENUSTATE
  2
AmdtAdMenuState
  3
DesignerServices
 90
     1024
 91
        1
280
     0
281
     0
  0
CLASS
  1
ADAPPL
  2
AcAdAppl
  3
DesignerServices
 90
     1024
 91
        1
280
     0
281
     0
  0
CLASS
  1
DEPMGR
  2
AcAdDepMgr
  3
DesignerServices
 90
     1024
 91
        1
280
     0
281
     0
  0
CLASS
  1
PARAMMGR
  2
AcAdParamMgr
  3
DesignerServices
 90
     1024
 91
        1
280
     0
281
     0
  0
CLASS
  1
PARAMSCOPE
  2
AcAdParamScope
  3
DesignerServices
 90
     1024
 91
        1
280
     0
281
     0
  0
CLASS
  1
NAMEDAPPL
  2
AcAdNamedAppl
  3
DesignerServices
 90
     1024
 91
        1
280
     0
281
     0
  0
CLASS
  1
AMDTDMMENUSTATE
  2
AmdtDmMenuState
  3
AcMechDwgViewMgmt
 90
     1024
 91
        1
280
     0
281
     0
  0
CLASS
  1
AMDTAMMENUSTATE
  2
AmdtAmMenuState
  3
DesignerAssemblies
 90
     1024
 91
        1
280
     0
281
     0
  0
CLASS
  1
ACAMPROJECT
  2
AcAmProject
  3
DesignerAssemblies
 90
     1024
 91
        1
280
     0
281
     0
  0
CLASS
  1
ACAMGRCOMPDEF
  2
AcAmGrCompDef
  3
DesignerAssemblies
 90
     1024
 91
        1
280
     0
281
     0
  0
CLASS
  1
ACCMCONTEXT
  2
AcCmContext
  3
DesignerAssemblies
 90
     1024
 91
        1
280
     0
281
     0
  0
CLASS
  1
ACAMCOMPDEF
  2
AcAmCompDef
  3
DesignerAssemblies
 90
     1024
 91
        1
280
     0
281
     0
  0
CLASS
  1
ACAMCOMPDEFMGR
  2
AcAmCompDefMgr
  3
DesignerAssemblies
 90
     1024
 91
        1
280
     0
281
     0
  0
CLASS
  1
AMCONTEXTMGR
  2
AcAmContextMgr
  3
DesignerAssemblies
 90
     1024
 91
        1
280
     0
281
     0
  0
CLASS
  1
ACAMCONTEXTMODELER
  2
AcAmContextModeler
  3
DesignerAssemblies
 90
     1024
 91
        1
280
     0
281
     0
  0
CLASS
  1
ACMDATADICTIONARY
  2
AcmDataDictionary
  3
"AcmSymBB|Product Description: AutoCAD Mechanical|Company: Autodesk, Inc."
 90
     1024
 91
        1
280
     0
281
     0
  0
CLASS
  1
CATALOGSTATE
  2
AcAmCatalogState
  3
DesignerAssemblies
 90
     1024
 91
        1
280
     0
281
     0
  0
CLASS
  1
ACAMGRCOMPDEFSET
  2
AcAmGrCompDefSet
  3
DesignerAssemblies
 90
     1024
 91
        1
280
     0
281
     0
  0
CLASS
  1
AMDTBROWSERDBTAB
  2
AmdtBrowserDbTab
  3
McadcomServices
 90
     1024
 91
        1
280
     0
281
     0
  0
CLASS
  1
CBROWSERAPPOBJECT
  2
CBrowserAppObject
  3
McadcomServices
 90
     1024
 91
        3
280
     0
281
     0
  0
CLASS
  1
DM_PLACEHOLDER
  2
AcDmSelsetPlaceholder
  3
AcMechDwgViewMgmt
 90
     1024
 91
        1
280
     0
281
     0
  0
CLASS
  1
ACMSTANDARDISO
  2
AcmStandardISO
  3
"Amdt_StdImp|Product Description: AutoCAD Mechanical|Company: Autodesk, Inc."
 90
     1024
 91
        1
280
     0
281
     0
  0
CLASS
  1
AMGOBJPROPCFG
  2
AmgObjPropCfg
  3
"AmgLay|Product Description: AutoCAD Mechanical|Company: Autodesk, Inc."
 90
     1025
 91
        1
280
     0
281
     0
  0
CLASS
  1
AMDTEDGESTANDARDISO13715
  2
AmdtEdgeStdISO13715
  3
"Amdt_StdImp|Product Description: AutoCAD Mechanical|Company: Autodesk, Inc."
 90
     1024
 91
        1
280
     0
281
     0
  0
CLASS
  1
ACMSURFSTANDARDISO
  2
AcmSurfTextStdISO
  3
"Amdt_StdImp|Product Description: AutoCAD Mechanical|Company: Autodesk, Inc."
 90
     1024
 91
        1
280
     0
281
     0
  0
CLASS
  1
ACMFCFSTANDARDISO
  2
AcmFCFStdISO
  3
"Amdt_StdImp|Product Description: AutoCAD Mechanical|Company: Autodesk, Inc."
 90
     1024
 91
        1
280
     0
281
     0
  0
CLASS
  1
ACMWELDSTANDARDISO
  2
AcmWeldingStdISO
  3
"Amdt_StdImp|Product Description: AutoCAD Mechanical|Company: Autodesk, Inc."
 90
     1024
 91
        1
280
     0
281
     0
  0
CLASS
  1
ACMIDSTANDARDISO
  2
AcmIdStdISO
  3
"Amdt_StdImp|Product Description: AutoCAD Mechanical|Company: Autodesk, Inc."
 90
     1024
 91
        1
280
     0
281
     0
  0
CLASS
  1
ACMDATUMSTANDARDISO
  2
AcmDatumStdISO
  3
"Amdt_StdImp|Product Description: AutoCAD Mechanical|Company: Autodesk, Inc."
 90
     1024
 91
        1
280
     0
281
     0
  0
CLASS
  1
ACMBOMSTANDARDISO
  2
AcmBOMStdISO
  3
"Amdt_StdImp|Product Description: AutoCAD Mechanical|Company: Autodesk, Inc."
 90
     1024
 91
        1
280
     0
281
     0
  0
CLASS
  1
ACMDETAILSTANDARDISO
  2
AmdtDetailSymStdISO
  3
"Amdt_StdImp|Product Description: AutoCAD Mechanical|Company: Autodesk, Inc."
 90
     1024
 91
        1
280
     0
281
     0
  0
CLASS
  1
ACMSECTIONSTANDARDISO
  2
AmdtSectionSymStdISO
  3
"Amdt_StdImp|Product Description: AutoCAD Mechanical|Company: Autodesk, Inc."
 90
     1024
 91
        1
280
     0
281
     0
  0
CLASS
  1
ACMCENTERLINESTANDARDISO
  2
AmdtCenterLineStdISO
  3
"Amdt_StdImp|Product Description: AutoCAD Mechanical|Company: Autodesk, Inc."
 90
     1024
 91
        1
280
     0
281
     0
  0
CLASS
  1
ACMTHREADLINESTANDARDISO
  2
AmdtThreadLineStdISO
  3
"Amdt_StdImp|Product Description: AutoCAD Mechanical|Company: Autodesk, Inc."
 90
     1024
 91
        1
280
     0
281
     0
  0
CLASS
  1
ACMNOTESTANDARDISO
  2
AmdtNoteStdISO
  3
"Amdt_StdImp|Product Description: AutoCAD Mechanical|Company: Autodesk, Inc."
 90
     1024
 91
        1
280
     0
281
     0
  0
CLASS
  1
ACMTAPERSTANDARDISO
  2
AcmTaperStdISO
  3
"Amdt_StdImp|Product Description: AutoCAD Mechanical|Company: Autodesk, Inc."
 90
     1024
 91
        1
280
     0
281
     0
  0
CLASS
  1
AMDTNOTETEMPLATEDB
  2
AmdtNoteTemplateDB
  3
AcmSymBB|Product Description: AutoCAD Mechanical|Company: Autodesk, Inc.
 90
     1024
 91
        6
280
     0
281
     0
  0
CLASS
  1
ACAMGLAYSTD
  2
AcAmgLayStd
  3
"AmgLay|Product Description: AutoCAD Mechanical|Company: Autodesk, Inc."
 90
     1024
 91
        1
280
     0
281
     0
  0
CLASS
  1
ACAMGDIMSTD
  2
AcAmgDimStd
  3
"AmgDim|Product Description: AutoCAD Mechanical|Company: Autodesk, Inc."
 90
     1024
 91
        1
280
     0
281
     0
  0
CLASS
  1
ACAMGHOLECHARTSTDISO
  2
AcAmgHoleChartStdISO
  3
AmgDim|Product Description: AutoCAD Mechanical|Company: Autodesk, Inc.
 90
     1024
 91
        1
280
     0
281
     0
  0
CLASS
  1
ACAMGTITLESTD
  2
AcAmgTitleStd
  3
"AmgTitle|Product Description: AutoCAD Mechanical|Company: Autodesk, Inc."
 90
     4095
 91
        1
280
     0
281
     0
  0
CLASS
  1
CAMSSTRUCTBTNSTATE
  2
StructBtnState
  3
DesignerAssemblies
 90
     1024
 91
        1
280
     0
281
     0
  0
CLASS
  1
SCALE
  2
AcDbScale
  3
ObjectDBX Classes
 90
     1153
 91
       33
280
     0
281
     0
  0
CLASS
  1
MLEADERSTYLE
  2
AcDbMLeaderStyle
  3
ACDB_MLEADERSTYLE_CLASS
 90
     4095
 91
        1
280
     0
281
     0
  0
CLASS
  1
ACMANOOTATIONVIEWSTANDARDISO
  2
AmdtAnViewStdISO
  3
"Amdt_StdImp|Product Description: AutoCAD Mechanical|Company: Autodesk, Inc."
 90
     1024
 91
        1
280
     0
281
     0
  0
CLASS
  1
ACAMGFILTERDAT
  2
AcAmgFilterDat
  3
"AcadM|Product Description: AutoCAD Mechanical|Company: Autodesk, Inc."
 90
     1024
 91
        6
280
     0
281
     0
  0
CLASS
  1
CELLSTYLEMAP
  2
AcDbCellStyleMap
  3
ObjectDBX Classes
 90
     1152
 91
        1
280
     0
281
     0
  0
ENDSEC
  0
SECTION
  2
TABLES
  0
TABLE
  2
VPORT
  5
8
330
0
100
AcDbSymbolTable
 70
     1
  0
VPORT
  5
A66
330
8
100
AcDbSymbolTableRecord
100
AcDbViewportTableRecord
  2
*Active
 70
     0
 10
0.0
 20
0.0
 11
1.0
 21
1.0
 12
-128.7594263627627
 22
64.19301677703884
 13
0.0
 23
0.0
 14
10.0
 24
10.0
 15
10.0
 25
10.0
 16
0.0
 26
0.0
 36
1.0
 17
16.25875125849207
 27
-16.8295619189452
 37
129.6707400579017
 40
166.99107151549
 41
1.499364675984752
 42
50.0
 43
0.0
 44
0.0
 50
0.0
 51
0.0
 71
     0
 72
 20000
 73
     1
 74
     3
 75
     0
 76
     0
 77
     0
 78
     0
281
     1
 65
     1
110
0.0
120
0.0
130
0.0
111
1.0
121
0.0
131
0.0
112
0.0
122
1.0
132
0.0
 79
     0
146
0.0
  0
ENDTAB
  0
TABLE
  2
LTYPE
  5
5
330
0
100
AcDbSymbolTable
 70
    14
  0
LTYPE
  5
14
330
5
100
AcDbSymbolTableRecord
100
AcDbLinetypeTableRecord
  2
ByBlock
 70
     0
  3

 72
    65
 73
     0
 40
0.0
  0
LTYPE
  5
15
330
5
100
AcDbSymbolTableRecord
100
AcDbLinetypeTableRecord
  2
ByLayer
 70
     0
  3

 72
    65
 73
     0
 40
0.0
  0
LTYPE
  5
16
330
5
100
AcDbSymbolTableRecord
100
AcDbLinetypeTableRecord
  2
Continuous
 70
     0
  3
Solid line
 72
    65
 73
     0
 40
0.0
  0
LTYPE
  5
ABC
330
5
100
AcDbSymbolTableRecord
100
AcDbLinetypeTableRecord
  2
HIDDEN
 70
     0
  3
Hidden __ __ __ __ __ __ __ __ __ __ __ __ __ _
 72
    65
 73
     2
 40
9.524999999999998
 49
6.349999999999999
 74
     0
 49
-3.174999999999999
 74
     0
  0
LTYPE
  5
ABD
330
5
100
AcDbSymbolTableRecord
100
AcDbLinetypeTableRecord
  2
PHANTOM2
 70
     0
  3
Phantom (.5x) ___ _ _ ___ _ _ ___ _ _ ___ _ _
 72
    65
 73
     6
 40
31.75
 49
15.875
 74
     0
 49
-3.174999999999999
 74
     0
 49
3.174999999999999
 74
     0
 49
-3.174999999999999
 74
     0
 49
3.174999999999999
 74
     0
 49
-3.174999999999999
 74
     0
  0
LTYPE
  5
ABE
330
5
100
AcDbSymbolTableRecord
100
AcDbLinetypeTableRecord
  2
CENTER
 70
     0
  3
Center ____ _ ____ _ ____ _ ____ _ ____ _ ____
 72
    65
 73
     4
 40
50.8
 49
31.75
 74
     0
 49
-6.349999999999999
 74
     0
 49
6.349999999999999
 74
     0
 49
-6.349999999999999
 74
     0
  0
LTYPE
  5
AF3
330
5
100
AcDbSymbolTableRecord
100
AcDbLinetypeTableRecord
  2
AM_ISO02W050
 70
     0
  3
__ __ __ __ __ __ __ __ __ __ __ __ __ __ __
 72
    65
 73
     2
 40
7.5
 49
6.0
 74
     0
 49
-1.5
 74
     0
  0
LTYPE
  5
AF4
330
5
100
AcDbSymbolTableRecord
100
AcDbLinetypeTableRecord
  2
AM_ISO08W050
 70
     0
  3
____ . ____ . ____ . ____ . ____ . ____ . ____
 72
    65
 73
     4
 40
18.0
 49
12.0
 74
     0
 49
-1.5
 74
     0
 49
3.0
 74
     0
 49
-1.5
 74
     0
  0
LTYPE
  5
AF5
330
5
100
AcDbSymbolTableRecord
100
AcDbLinetypeTableRecord
  2
AM_ISO09W050
 70
     0
  3
_____ . . _____ . . _____ . . ____ .. ____
 72
    65
 73
     6
 40
22.5
 49
12.0
 74
     0
 49
-1.5
 74
     0
 49
3.0
 74
     0
 49
-1.5
 74
     0
 49
3.0
 74
     0
 49
-1.5
 74
     0
  0
LTYPE
  5
AF6
330
5
100
AcDbSymbolTableRecord
100
AcDbLinetypeTableRecord
  2
Amconstr
 70
     0
  3
_______________________
 72
    65
 73
     2
 40
9999.0
 49
9999.0
 74
     0
 49
0.0
 74
     0
  0
LTYPE
  5
AF7
330
5
100
AcDbSymbolTableRecord
100
AcDbLinetypeTableRecord
  2
AM_ISO08W050x2
 70
     0
  3
__ . __ . __ . __ . __ . __
 72
    65
 73
     4
 40
9.0
 49
6.0
 74
     0
 49
-0.75
 74
     0
 49
1.5
 74
     0
 49
-0.75
 74
     0
  0
LTYPE
  5
AF8
330
5
100
AcDbSymbolTableRecord
100
AcDbLinetypeTableRecord
  2
AM_ISO02W050x2
 70
     0
  3
 _ _ _ _ _ _ _ _ _ _ _ _
 72
    65
 73
     2
 40
3.75
 49
3.0
 74
     0
 49
-0.75
 74
     0
  0
LTYPE
  5
AFB
330
5
100
AcDbSymbolTableRecord
100
AcDbLinetypeTableRecord
  2
Amzigzag
 70
     0
  3
/\/-/\/-/\/-/\/-/\/-/\/
 72
    65
 73
     2
 40
11.0001
 49
0.0001
 74
     4
 75
   136
340
AFA
 46
0.04
 50
0.0
 44
0.0
 45
0.0
 49
-11.0
 74
     0
  0
LTYPE
  5
B0B
330
5
100
AcDbSymbolTableRecord
100
AcDbLinetypeTableRecord
  2
ACISOWELD
 70
     0
  3
_ _ _ _ _
 72
    65
 73
     2
 40
2.0
 49
2.0
 74
     0
 49
-1.0
 74
     0
  0
LTYPE
  5
B0C
330
5
100
AcDbSymbolTableRecord
100
AcDbLinetypeTableRecord
  2
ACISOTGB
 70
     0
  3
__ . . __ . .
 72
    65
 73
     6
 40
9.0
 49
4.0
 74
     0
 49
-1.0
 74
     0
 49
1.0
 74
     0
 49
-1.0
 74
     0
 49
1.0
 74
     0
 49
-1.0
 74
     0
  0
LTYPE
  5
B0D
330
5
100
AcDbSymbolTableRecord
100
AcDbLinetypeTableRecord
  2
ACISOTGL
 70
     0
  3
_ _ _ _ _
 72
    65
 73
     2
 40
3.0
 49
2.0
 74
     0
 49
-1.0
 74
     0
  0
ENDTAB
  0
TABLE
  2
LAYER
  5
2
330
0
100
AcDbSymbolTable
 70
     3
  0
LAYER
  5
10
102
{ACAD_XDICTIONARY
360
B71
102
}
330
2
100
AcDbSymbolTableRecord
100
AcDbLayerTableRecord
  2
0
 70
     0
 62
     7
  6
Continuous
370
    -3
390
F
  0
LAYER
  5
71
330
2
100
AcDbSymbolTableRecord
100
AcDbLayerTableRecord
  2
Defpoints
 70
     0
 62
     7
  6
Continuous
290
     0
370
    -3
390
F
  0
LAYER
  5
32A
102
{ACAD_XDICTIONARY
360
B73
102
}
330
2
100
AcDbSymbolTableRecord
100
AcDbLayerTableRecord
  2
ASHADE
 70
     4
 62
     7
  6
Continuous
370
    -3
390
F
  0
ENDTAB
  0
TABLE
  2
STYLE
  5
3
330
0
100
AcDbSymbolTable
 70
     5
  0
STYLE
  5
11
330
3
100
AcDbSymbolTableRecord
100
AcDbTextStyleTableRecord
  2
Standard
 70
     0
 40
0.0
 41
1.0
 50
0.0
 71
     0
 42
2.5
  3
txt
  4

  0
STYLE
  5
327
330
3
100
AcDbSymbolTableRecord
100
AcDbTextStyleTableRecord
  2
ASHADE
 70
     0
 40
0.2
 41
1.0
 50
0.0
 71
     0
 42
2.5
  3
simplex.shx
  4

  0
STYLE
  5
AFA
330
3
100
AcDbSymbolTableRecord
100
AcDbTextStyleTableRecord
  2

 70
     1
 40
0.0
 41
1.0
 50
0.0
 71
     0
 42
2.5
  3
genltshp.shx
  4

  0
STYLE
  5
AFC
330
3
100
AcDbSymbolTableRecord
100
AcDbTextStyleTableRecord
  2
ACISOTS
 70
     0
 40
1.0
 41
1.0
 50
0.0
 71
     0
 42
2.5
  3
isocp.shx
  4

  0
STYLE
  5
B0A
330
3
100
AcDbSymbolTableRecord
100
AcDbTextStyleTableRecord
  2
ACISOGDT
 70
     0
 40
0.0
 41
1.0
 50
0.0
 71
     0
 42
2.5
  3
amgdt.shx
  4

  0
ENDTAB
  0
TABLE
  2
VIEW
  5
6
330
0
100
AcDbSymbolTable
 70
     1
  0
VIEW
  5
3CF
330
6
100
AcDbSymbolTableRecord
100
AcDbViewTableRecord
  2
A
 70
     0
 40
226.3975164026888
 10
9.896007185343563
 20
-19.39634343216949
 41
376.2070253977765
 11
420.7414074827266
 21
-498.1262378151498
 31
211.8598711223354
 12
16.25875125849207
 22
-16.8295619189452
 32
129.6707400579017
 42
50.0
 43
0.0
 44
0.0
 50
0.0
 71
     0
281
     1
 72
     1
110
0.0
120
0.0
130
0.0
111
1.0
121
0.0
131
0.0
112
0.0
122
0.0
132
1.0
 79
     3
146
0.0
  0
ENDTAB
  0
TABLE
  2
UCS
  5
7
330
0
100
AcDbSymbolTable
 70
     0
  0
ENDTAB
  0
TABLE
  2
APPID
  5
9
330
0
100
AcDbSymbolTable
 70
    15
  0
APPID
  5
12
330
9
100
AcDbSymbolTableRecord
100
AcDbRegAppTableRecord
  2
ACAD
 70
     0
  0
APPID
  5
328
330
9
100
AcDbSymbolTableRecord
100
AcDbRegAppTableRecord
  2
AVE_RENDER
 70
     0
  0
APPID
  5
329
330
9
100
AcDbSymbolTableRecord
100
AcDbRegAppTableRecord
  2
AVE_ENTITY_MATERIAL
 70
     0
  0
APPID
  5
336
330
9
100
AcDbSymbolTableRecord
100
AcDbRegAppTableRecord
  2
AVE_FINISH
 70
     0
  0
APPID
  5
337
330
9
100
AcDbSymbolTableRecord
100
AcDbRegAppTableRecord
  2
AVE_MATERIAL
 70
     0
  0
APPID
  5
338
330
9
100
AcDbSymbolTableRecord
100
AcDbRegAppTableRecord
  2
AVE_GLOBAL
 70
     0
  0
APPID
  5
A8D
330
9
100
AcDbSymbolTableRecord
100
AcDbRegAppTableRecord
  2
MCAD_NO_VIS
 70
     0
  0
APPID
  5
A8E
330
9
100
AcDbSymbolTableRecord
100
AcDbRegAppTableRecord
  2
ACAD_TEMP_GRAPHIC
 70
     0
  0
APPID
  5
AC0
330
9
100
AcDbSymbolTableRecord
100
AcDbRegAppTableRecord
  2
AD_DRAW
 70
     0
  0
APPID
  5
AC3
330
9
100
AcDbSymbolTableRecord
100
AcDbRegAppTableRecord
  2
ACATTRIBSERVICES
 70
     0
  0
APPID
  5
AE4
330
9
100
AcDbSymbolTableRecord
100
AcDbRegAppTableRecord
  2
DESIGNERASSEMBLIES
 70
     0
  0
APPID
  5
AEA
330
9
100
AcDbSymbolTableRecord
100
AcDbRegAppTableRecord
  2
ACADM_DIM_EDIT
 70
     0
  0
APPID
  5
AEB
330
9
100
AcDbSymbolTableRecord
100
AcDbRegAppTableRecord
  2
AMDT_DM_ADJ
 70
     0
  0
APPID
  5
B4C
330
9
100
AcDbSymbolTableRecord
100
AcDbRegAppTableRecord
  2
ACAD_MLEADERVER
 70
     0
  0
APPID
  5
B82
330
9
100
AcDbSymbolTableRecord
100
AcDbRegAppTableRecord
  2
ACAD_DSTYLE_DIMARC_LENGTH_SYMBOL
 70
     0
  0
ENDTAB
  0
TABLE
  2
DIMSTYLE
  5
A
330
0
100
AcDbSymbolTable
 70
     9
100
AcDbDimStyleTable
 71
     1
340
27
  0
DIMSTYLE
105
27
102
{ACAD_REACTORS
330
941
330
971
330
9B3
102
}
330
A
100
AcDbSymbolTableRecord
100
AcDbDimStyleTableRecord
  2
ISO-25
 70
     0
 41
2.5
 42
0.625
 43
3.75
 44
1.25
 73
     0
 74
     0
 77
     1
 78
     8
140
2.5
141
2.5
143
0.03937007874016
147
0.625
171
     3
172
     1
271
     2
272
     2
274
     3
278
    44
283
     0
284
     8
340
11
  0
DIMSTYLE
105
3A5
330
A
100
AcDbSymbolTableRecord
100
AcDbDimStyleTableRecord
  2
Standard
 70
     0
340
11
  0
DIMSTYLE
105
B18
330
A
100
AcDbSymbolTableRecord
100
AcDbDimStyleTableRecord
  2
AM_ISO
 70
     0
  4
"
 41
2.5
 42
1.0
 43
10.0
 44
1.0
 47
0.1
 48
0.1
 73
     0
 74
     0
 77
     1
 78
     8
 79
     2
140
3.5
141
0.0
143
0.0393701
146
0.71
147
1.5
172
     1
176
   256
177
   256
178
     2
271
     2
272
     3
274
     4
283
     0
284
     8
340
11
371
    -1
372
    -1
1001
ACAD_DSTYLE_DIMARC_LENGTH_SYMBOL
1070
   379
1070
     1
  0
DIMSTYLE
105
B19
330
A
100
AcDbSymbolTableRecord
100
AcDbDimStyleTableRecord
  2
AM_ISO$3
 70
     0
  4
"
 41
2.5
 42
1.0
 43
10.0
 44
1.0
 47
0.1
 48
0.1
 73
     0
 77
     1
 78
     8
 79
     2
140
3.5
141
0.0
143
0.0393701
146
0.71
147
1.5
176
   256
177
   256
178
     2
271
     2
272
     3
274
     4
283
     0
284
     8
288
     1
289
     0
340
11
371
    -1
372
    -1
1001
ACAD_DSTYLE_DIMARC_LENGTH_SYMBOL
1070
   379
1070
     1
  0
DIMSTYLE
105
B1A
330
A
100
AcDbSymbolTableRecord
100
AcDbDimStyleTableRecord
  2
AM_ISO$4
 70
     0
  4
"
 41
2.5
 42
1.0
 43
10.0
 44
1.0
 47
0.1
 48
0.1
 73
     0
 77
     1
 78
     8
 79
     2
140
3.5
141
0.0
143
0.0393701
146
0.71
147
1.5
176
   256
177
   256
178
     2
271
     2
272
     3
274
     4
283
     0
284
     8
288
     1
289
     0
340
11
371
    -1
372
    -1
1001
ACAD_DSTYLE_DIMARC_LENGTH_SYMBOL
1070
   379
1070
     1
  0
DIMSTYLE
105
B1B
330
A
100
AcDbSymbolTableRecord
100
AcDbDimStyleTableRecord
  2
AM_ISO$6
 70
     0
  4
"
 41
2.5
 42
1.0
 43
10.0
 44
1.0
 47
0.1
 48
0.1
 73
     0
 74
     0
 78
     8
 79
     2
140
3.5
141
0.0
143
0.0393701
146
0.71
147
1.5
172
     1
176
   256
177
   256
178
     2
271
     2
272
     3
274
     4
283
     0
284
     8
340
11
371
    -1
372
    -1
1001
ACAD_DSTYLE_DIMARC_LENGTH_SYMBOL
1070
   379
1070
     1
  0
DIMSTYLE
105
B1C
330
A
100
AcDbSymbolTableRecord
100
AcDbDimStyleTableRecord
  2
AM_ISO$7
 70
     0
  4
"
 41
2.5
 42
1.0
 43
10.0
 44
1.0
 47
0.1
 48
0.1
 73
     0
 74
     0
 77
     1
 78
     8
 79
     2
140
5.0
141
0.0
143
0.0393701
146
0.71
147
1.5
172
     1
176
   256
177
   256
178
     2
271
     2
272
     3
274
     4
283
     0
284
     8
340
11
371
    -1
372
    -1
1001
ACAD_DSTYLE_DIMARC_LENGTH_SYMBOL
1070
   379
1070
     1
  0
DIMSTYLE
105
B1D
330
A
100
AcDbSymbolTableRecord
100
AcDbDimStyleTableRecord
  2
AM_ISO$SF
 70
     0
  4
"
 41
2.5
 42
1.0
 43
10.0
 44
1.0
 47
0.1
 48
0.1
 73
     0
 74
     0
 75
     1
 76
     1
 77
     1
 78
     8
 79
     2
140
3.5
141
0.0
143
0.0393701
146
0.71
147
1.5
172
     1
176
   256
177
   256
178
     2
271
     2
272
     3
274
     4
283
     0
284
     8
340
11
371
    -1
372
    -1
1001
ACAD_DSTYLE_DIMARC_LENGTH_SYMBOL
1070
   379
1070
     1
  0
DIMSTYLE
105
B22
330
A
100
AcDbSymbolTableRecord
100
AcDbDimStyleTableRecord
  2
AM_ISO$SH
 70
     0
  4
"
 41
2.5
 42
1.0
 43
10.0
 44
1.0
 47
0.1
 48
0.1
 73
     0
 74
     0
 75
     1
 76
     1
 77
     1
 78
     8
 79
     2
140
3.5
141
0.0
143
0.0393701
144
2.0
146
0.71
147
1.5
172
     1
173
     1
176
   256
177
   256
178
     2
271
     2
272
     3
274
     4
283
     0
284
     8
340
11
343
B1E
371
    -1
372
    -1
1001
ACAD_DSTYLE_DIMARC_LENGTH_SYMBOL
1070
   379
1070
     1
  0
ENDTAB
  0
TABLE
  2
BLOCK_RECORD
  5
1
330
0
100
AcDbSymbolTable
 70
    11
  0
BLOCK_RECORD
  5
1F
330
1
100
AcDbSymbolTableRecord
100
AcDbBlockTableRecord
  2
*Model_Space
340
22
  0
BLOCK_RECORD
  5
50
330
1
100
AcDbSymbolTableRecord
100
AcDbBlockTableRecord
  2
*Paper_Space
340
51
  0
BLOCK_RECORD
  5
55
330
1
100
AcDbSymbolTableRecord
100
AcDbBlockTableRecord
  2
*Paper_Space0
340
56
  0
BLOCK_RECORD
  5
32B
330
1
100
AcDbSymbolTableRecord
100
AcDbBlockTableRecord
  2
AVE_RENDER
340
0
102
{BLKREFS
331
32E
331
32F
331
330
331
331
331
332
331
333
331
334
331
335
102
}
  0
BLOCK_RECORD
  5
339
330
1
100
AcDbSymbolTableRecord
100
AcDbBlockTableRecord
  2
AVE_GLOBAL
340
0
102
{BLKREFS
331
33C
102
}
  0
BLOCK_RECORD
  5
33E
330
1
100
AcDbSymbolTableRecord
100
AcDbBlockTableRecord
  2
RM_SDB
340
0
102
{BLKREFS
331
358
331
371
331
38A
102
}
  0
BLOCK_RECORD
  5
3A7
330
1
100
AcDbSymbolTableRecord
100
AcDbBlockTableRecord
  2
direct
340
0
  0
BLOCK_RECORD
  5
3E4
330
1
100
AcDbSymbolTableRecord
100
AcDbBlockTableRecord
  2
sh_spot
340
0
  0
BLOCK_RECORD
  5
942
330
1
100
AcDbSymbolTableRecord
100
AcDbBlockTableRecord
  2
*D6
340
0
  0
BLOCK_RECORD
  5
972
330
1
100
AcDbSymbolTableRecord
100
AcDbBlockTableRecord
  2
*D7
340
0
  0
BLOCK_RECORD
  5
9B4
330
1
100
AcDbSymbolTableRecord
100
AcDbBlockTableRecord
  2
*D8
340
0
  0
BLOCK_RECORD
  5
B1E
330
1
100
AcDbSymbolTableRecord
100
AcDbBlockTableRecord
  2
GENAXEH
340
0
  0
ENDTAB
  0
ENDSEC
  0
SECTION
  2
BLOCKS
  0
BLOCK
  5
20
330
1F
100
AcDbEntity
  8
0
100
AcDbBlockBegin
  2
*Model_Space
 70
     0
 10
0.0
 20
0.0
 30
0.0
  3
*Model_Space
  1

  0
ENDBLK
  5
21
330
1F
100
AcDbEntity
  8
0
100
AcDbBlockEnd
  0
BLOCK
  5
52
330
50
100
AcDbEntity
 67
     1
  8
0
100
AcDbBlockBegin
  2
*Paper_Space
 70
     0
 10
0.0
 20
0.0
 30
0.0
  3
*Paper_Space
  1

  0
ENDBLK
  5
53
330
50
100
AcDbEntity
 67
     1
  8
0
100
AcDbBlockEnd
  0
BLOCK
  5
57
330
55
100
AcDbEntity
 67
     1
  8
0
100
AcDbBlockBegin
  2
*Paper_Space0
 70
     0
 10
0.0
 20
0.0
 30
0.0
  3
*Paper_Space0
  1

  0
ENDBLK
  5
58
330
55
100
AcDbEntity
 67
     1
  8
0
100
AcDbBlockEnd
  0
BLOCK
  5
32C
330
32B
100
AcDbEntity
  8
ASHADE
100
AcDbBlockBegin
  2
AVE_RENDER
 70
     0
 10
0.0
 20
0.0
 30
0.0
  3
AVE_RENDER
  1
AVE_RENDER
  0
ENDBLK
  5
32D
330
32B
100
AcDbEntity
  8
0
100
AcDbBlockEnd
  0
BLOCK
  5
33A
330
339
100
AcDbEntity
  8
ASHADE
100
AcDbBlockBegin
  2
AVE_GLOBAL
 70
     0
 10
0.0
 20
0.0
 30
0.0
  3
AVE_GLOBAL
  1
AVE_GLOBAL
  0
ENDBLK
  5
33B
330
339
100
AcDbEntity
  8
0
100
AcDbBlockEnd
  0
BLOCK
  5
33F
330
33E
100
AcDbEntity
  8
ASHADE
100
AcDbBlockBegin
  2
RM_SDB
 70
     2
 10
0.0
 20
0.0
 30
0.0
  3
RM_SDB
  1
RM_SDB
  0
ATTDEF
  5
340
330
33E
100
AcDbEntity
  8
0
100
AcDbText
 10
0.0
 20
0.0
 30
0.0
 40
0.2
  1

100
AcDbAttributeDefinition
  3

  2
NAME
 70
     1
  0
ATTDEF
  5
341
330
33E
100
AcDbEntity
  8
0
100
AcDbText
 10
0.0
 20
0.0
 30
0.0
 40
0.2
  1

100
AcDbAttributeDefinition
  3

  2
ACADCOLOR
 70
     1
  0
ATTDEF
  5
342
330
33E
100
AcDbEntity
  8
0
100
AcDbText
 10
0.0
 20
0.0
 30
0.0
 40
0.2
  1

100
AcDbAttributeDefinition
  3

  2
COLOR
 70
     1
  0
ATTDEF
  5
343
330
33E
100
AcDbEntity
  8
0
100
AcDbText
 10
0.0
 20
0.0
 30
0.0
 40
0.2
  1

100
AcDbAttributeDefinition
  3

  2
OPACITY
 70
     1
  0
ATTDEF
  5
344
330
33E
100
AcDbEntity
  8
0
100
AcDbText
 10
0.0
 20
0.0
 30
0.0
 40
0.2
  1

100
AcDbAttributeDefinition
  3

  2
SURFACE
 70
     1
  0
ATTDEF
  5
345
330
33E
100
AcDbEntity
  8
0
100
AcDbText
 10
0.0
 20
0.0
 30
0.0
 40
0.2
  1

100
AcDbAttributeDefinition
  3

  2
SURF1
 70
     1
  0
ATTDEF
  5
346
330
33E
100
AcDbEntity
  8
0
100
AcDbText
 10
0.0
 20
0.0
 30
0.0
 40
0.2
  1

100
AcDbAttributeDefinition
  3

  2
SURF2
 70
     1
  0
ATTDEF
  5
347
330
33E
100
AcDbEntity
  8
0
100
AcDbText
 10
0.0
 20
0.0
 30
0.0
 40
0.2
  1

100
AcDbAttributeDefinition
  3

  2
SURF3
 70
     1
  0
ATTDEF
  5
348
330
33E
100
AcDbEntity
  8
0
100
AcDbText
 10
0.0
 20
0.0
 30
0.0
 40
0.2
  1

100
AcDbAttributeDefinition
  3

  2
SURF4
 70
     1
  0
ATTDEF
  5
349
330
33E
100
AcDbEntity
  8
0
100
AcDbText
 10
0.0
 20
0.0
 30
0.0
 40
0.2
  1

100
AcDbAttributeDefinition
  3

  2
SHADINGRATE
 70
     1
  0
ATTDEF
  5
34A
330
33E
100
AcDbEntity
  8
0
100
AcDbText
 10
0.0
 20
0.0
 30
0.0
 40
0.2
  1

100
AcDbAttributeDefinition
  3

  2
DISPLACEMENT
 70
     1
  0
ATTDEF
  5
34B
330
33E
100
AcDbEntity
  8
0
100
AcDbText
 10
0.0
 20
0.0
 30
0.0
 40
0.2
  1

100
AcDbAttributeDefinition
  3

  2
DISP1
 70
     1
  0
ATTDEF
  5
34C
330
33E
100
AcDbEntity
  8
0
100
AcDbText
 10
0.0
 20
0.0
 30
0.0
 40
0.2
  1

100
AcDbAttributeDefinition
  3

  2
DISP2
 70
     1
  0
ATTDEF
  5
34D
330
33E
100
AcDbEntity
  8
0
100
AcDbText
 10
0.0
 20
0.0
 30
0.0
 40
0.2
  1

100
AcDbAttributeDefinition
  3

  2
DISP3
 70
     1
  0
ATTDEF
  5
34E
330
33E
100
AcDbEntity
  8
0
100
AcDbText
 10
0.0
 20
0.0
 30
0.0
 40
0.2
  1

100
AcDbAttributeDefinition
  3

  2
DISP4
 70
     1
  0
ATTDEF
  5
34F
330
33E
100
AcDbEntity
  8
0
100
AcDbText
 10
0.0
 20
0.0
 30
0.0
 40
0.2
  1

100
AcDbAttributeDefinition
  3

  2
DBOUND
 70
     1
  0
ATTDEF
  5
350
330
33E
100
AcDbEntity
  8
0
100
AcDbText
 10
0.0
 20
0.0
 30
0.0
 40
0.2
  1

100
AcDbAttributeDefinition
  3

  2
SMOOTH
 70
     1
  0
ATTDEF
  5
351
330
33E
100
AcDbEntity
  8
0
100
AcDbText
 10
0.0
 20
0.0
 30
0.0
 40
0.2
  1

100
AcDbAttributeDefinition
  3

  2
ATMOSHPERE
 70
     1
  0
ATTDEF
  5
352
330
33E
100
AcDbEntity
  8
0
100
AcDbText
 10
0.0
 20
0.0
 30
0.0
 40
0.2
  1

100
AcDbAttributeDefinition
  3

  2
ATMO1
 70
     1
  0
ATTDEF
  5
353
330
33E
100
AcDbEntity
  8
0
100
AcDbText
 10
0.0
 20
0.0
 30
0.0
 40
0.2
  1

100
AcDbAttributeDefinition
  3

  2
ATMO2
 70
     1
  0
ATTDEF
  5
354
330
33E
100
AcDbEntity
  8
0
100
AcDbText
 10
0.0
 20
0.0
 30
0.0
 40
0.2
  1

100
AcDbAttributeDefinition
  3

  2
ATMO3
 70
     1
  0
ATTDEF
  5
355
330
33E
100
AcDbEntity
  8
0
100
AcDbText
 10
0.0
 20
0.0
 30
0.0
 40
0.2
  1

100
AcDbAttributeDefinition
  3

  2
ATMO4
 70
     1
  0
ATTDEF
  5
356
330
33E
100
AcDbEntity
  8
0
100
AcDbText
 10
0.0
 20
0.0
 30
0.0
 40
0.2
  1

100
AcDbAttributeDefinition
  3

  2
TCCORD
 70
     1
  0
ENDBLK
  5
357
330
33E
100
AcDbEntity
  8
0
100
AcDbBlockEnd
  0
BLOCK
  5
3B9
330
3A7
100
AcDbEntity
  8
0
100
AcDbBlockBegin
  2
direct
 70
     2
 10
0.0
 20
0.0
 30
0.0
  3
direct
  1

  0
ATTDEF
  5
3A8
330
3A7
100
AcDbEntity
  8
ASHADE
  6
Continuous
 62
     1
100
AcDbText
 10
0.0
 20
-0.1
 30
0.0
 40
0.2
  1

  7
ASHADE
 72
     1
 11
0.0
 21
-0.1
 31
0.0
100
AcDbAttributeDefinition
  3
Light Name
  2
SNAME
 70
     0
  0
ARC
  5
3A9
330
3A7
100
AcDbEntity
  8
ASHADE
  6
Continuous
 62
     7
100
AcDbCircle
 10
0.0
 20
0.0
 30
0.0
 40
0.3
100
AcDbArc
 50
205.6792886194569
 51
334.3207113805431
  0
ARC
  5
3AA
330
3A7
100
AcDbEntity
  8
ASHADE
  6
Continuous
 62
     7
100
AcDbCircle
 10
0.0
 20
0.0
 30
0.0
 40
0.3
100
AcDbArc
 50
25.67928861945685
 51
154.3207113805431
  0
LINE
  5
3AB
330
3A7
100
AcDbEntity
  8
ASHADE
  6
Continuous
 62
     7
100
AcDbLine
 10
-0.21
 20
0.2142428528562855
 30
0.0
 11
-0.21
 21
0.5
 31
0.0
  0
LINE
  5
3AC
330
3A7
100
AcDbEntity
  8
ASHADE
  6
Continuous
 62
     7
100
AcDbLine
 10
-0.11
 20
0.2791057147390572
 30
0.0
 11
-0.11
 21
0.5
 31
0.0
  0
LINE
  5
3AD
330
3A7
100
AcDbEntity
  8
ASHADE
  6
Continuous
 62
     7
100
AcDbLine
 10
0.21
 20
0.2142428528562855
 30
0.0
 11
0.21
 21
0.5
 31
0.0
  0
ATTDEF
  5
3AE
330
3A7
100
AcDbEntity
  8
ASHADE
  6
Continuous
 62
     7
100
AcDbText
 10
0.0
 20
0.25
 30
0.0
 40
0.01
  1

100
AcDbAttributeDefinition
  3
Look-at Y
  2
LAY
 70
     1
  0
ATTDEF
  5
3AF
330
3A7
100
AcDbEntity
  8
ASHADE
  6
Continuous
 62
     7
100
AcDbText
 10
0.0
 20
0.22
 30
0.0
 40
0.01
  1
1
100
AcDbAttributeDefinition
  3
Light Intensity
  2
INTENSITY
 70
     1
  0
ATTDEF
  5
3B0
330
3A7
100
AcDbEntity
  8
ASHADE
  6
Continuous
 62
     7
100
AcDbText
 10
0.0
 20
0.16
 30
0.0
 40
0.01
  1
-1
100
AcDbAttributeDefinition
  3
*not used*
  2
BEAMD
 70
     1
  0
ATTDEF
  5
3B1
330
3A7
100
AcDbEntity
  8
ASHADE
  6
Continuous
 62
     7
100
AcDbText
 10
0.0
 20
0.175
 30
0.0
 40
0.01
  1
-1
100
AcDbAttributeDefinition
  3
*not used*
  2
CONED
 70
     1
  0
ATTDEF
  5
3B2
330
3A7
100
AcDbEntity
  8
ASHADE
  6
Continuous
 62
     7
100
AcDbText
 10
0.0
 20
0.19
 30
0.0
 40
0.01
  1
0
100
AcDbAttributeDefinition
  3
Depth Map Size
  2
CONEA
 70
     1
  0
ATTDEF
  5
3B3
330
3A7
100
AcDbEntity
  8
ASHADE
  6
Continuous
 62
     7
100
AcDbText
 10
0.0
 20
0.2050000000000001
 30
0.0
 40
0.01
  1
1,1,1
100
AcDbAttributeDefinition
  3
Light Color (RGB)
  2
COLOR
 70
     1
  0
ATTDEF
  5
3B4
330
3A7
100
AcDbEntity
  8
ASHADE
  6
Continuous
 62
     7
100
AcDbText
 10
0.0
 20
0.235
 30
0.0
 40
0.01
  1

100
AcDbAttributeDefinition
  3
Look-at Z
  2
LAZ
 70
     1
  0
LINE
  5
3B5
330
3A7
100
AcDbEntity
  8
ASHADE
  6
Continuous
 62
     7
100
AcDbLine
 10
0.0
 20
0.3
 30
0.0
 11
0.0
 21
0.5
 31
0.0
  0
LINE
  5
3B6
330
3A7
100
AcDbEntity
  8
ASHADE
  6
Continuous
 62
     7
100
AcDbLine
 10
0.11
 20
0.2791057147390572
 30
0.0
 11
0.11
 21
0.5
 31
0.0
  0
ATTDEF
  5
3B7
330
3A7
100
AcDbEntity
  8
ASHADE
  6
Continuous
 62
     7
100
AcDbText
 10
0.0
 20
0.265
 30
0.0
 40
0.01
  1

100
AcDbAttributeDefinition
  3
Look-at X
  2
LAX
 70
     1
  0
ATTDEF
  5
3B8
330
3A7
100
AcDbEntity
  8
ASHADE
  6
Continuous
 62
     7
100
AcDbText
 10
0.0
 20
0.28
 30
0.0
 40
0.01
  1

100
AcDbAttributeDefinition
  3

  2
GNAME
 70
     1
  0
ENDBLK
  5
3BA
330
3A7
100
AcDbEntity
  8
0
100
AcDbBlockEnd
  0
BLOCK
  5
40A
330
3E4
100
AcDbEntity
  8
0
100
AcDbBlockBegin
  2
sh_spot
 70
     2
 10
0.0
 20
0.0
 30
0.0
  3
sh_spot
  1

  0
LINE
  5
3E5
330
3E4
100
AcDbEntity
  8
ASHADE
  6
Continuous
 62
     7
100
AcDbLine
 10
0.25
 20
0.26
 30
0.0
 11
-0.25
 21
0.26
 31
0.0
  0
LINE
  5
3E6
330
3E4
100
AcDbEntity
  8
ASHADE
  6
Continuous
 62
     7
100
AcDbLine
 10
-0.25
 20
-0.3399999999999999
 30
0.0
 11
0.25
 21
-0.3399999999999999
 31
0.0
  0
ATTDEF
  5
3E7
330
3E4
100
AcDbEntity
  8
ASHADE
  6
Continuous
 62
     1
100
AcDbText
 10
0.0
 20
-0.1
 30
0.0
 40
0.2
  1

  7
ASHADE
 72
     1
 11
0.0
 21
-0.1
 31
0.0
100
AcDbAttributeDefinition
  3
Light Name
  2
SNAME
 70
     0
  0
LINE
  5
3E8
330
3E4
100
AcDbEntity
  8
ASHADE
  6
Continuous
 62
     7
100
AcDbLine
 10
-0.25
 20
-0.13
 30
0.0
 11
-0.25
 21
-0.3399999999999999
 31
0.0
  0
LINE
  5
3E9
330
3E4
100
AcDbEntity
  8
ASHADE
  6
Continuous
 62
     7
100
AcDbLine
 10
-0.25
 20
-0.18
 30
0.0
 11
-0.29
 21
-0.18
 31
0.0
  0
LINE
  5
3EA
330
3E4
100
AcDbEntity
  8
ASHADE
  6
Continuous
 62
     7
100
AcDbLine
 10
-0.29
 20
-0.22
 30
0.0
 11
-0.25
 21
-0.22
 31
0.0
  0
LINE
  5
3EB
330
3E4
100
AcDbEntity
  8
ASHADE
  6
Continuous
 62
     7
100
AcDbLine
 10
-0.29
 20
-0.18
 30
0.0
 11
-0.29
 21
-0.22
 31
0.0
  0
LINE
  5
3EC
330
3E4
100
AcDbEntity
  8
ASHADE
  6
Continuous
 62
     7
100
AcDbLine
 10
-0.1045454545454545
 20
0.26
 30
0.0
 11
-0.15
 21
0.46
 31
0.0
  0
LINE
  5
3ED
330
3E4
100
AcDbEntity
  8
ASHADE
  6
Continuous
 62
     7
100
AcDbLine
 10
-0.21
 20
0.26
 30
0.0
 11
-0.301304347826087
 21
0.46
 31
0.0
  0
LINE
  5
3EE
330
3E4
100
AcDbEntity
  8
ASHADE
  6
Continuous
 62
     7
100
AcDbLine
 10
-0.25
 20
0.26
 30
0.0
 11
-0.25
 21
0.13
 31
0.0
  0
LINE
  5
3EF
330
3E4
100
AcDbEntity
  8
ASHADE
  6
Continuous
 62
     7
100
AcDbLine
 10
-0.25
 20
0.22
 30
0.0
 11
-0.29
 21
0.22
 31
0.0
  0
LINE
  5
3F0
330
3E4
100
AcDbEntity
  8
ASHADE
  6
Continuous
 62
     7
100
AcDbLine
 10
-0.29
 20
0.1799999999999999
 30
0.0
 11
-0.25
 21
0.1799999999999999
 31
0.0
  0
LINE
  5
3F1
330
3E4
100
AcDbEntity
  8
ASHADE
  6
Continuous
 62
     7
100
AcDbLine
 10
-0.29
 20
0.22
 30
0.0
 11
-0.29
 21
0.1799999999999999
 31
0.0
  0
ATTDEF
  5
3F2
330
3E4
100
AcDbEntity
  8
ASHADE
  6
Continuous
 62
     7
100
AcDbText
 10
0.0
 20
-0.24
 30
0.0
 40
0.01
  1
0
100
AcDbAttributeDefinition
  3
Depth Map Size
  2
ZSIZE
 70
     1
  0
ATTDEF
  5
3F3
330
3E4
100
AcDbEntity
  8
ASHADE
  6
Continuous
 62
     7
100
AcDbText
 10
0.0
 20
-0.3300000000000001
 30
0.0
 40
0.01
  1
0,0,0
100
AcDbAttributeDefinition
  3
Look-from XYZ
  2
LFXYZ
 70
     1
  0
ATTDEF
  5
3F4
330
3E4
100
AcDbEntity
  8
ASHADE
  6
Continuous
 62
     7
100
AcDbText
 10
0.0
 20
-0.315
 30
0.0
 40
0.01
  1
0.0
100
AcDbAttributeDefinition
  3
Beam Distribution
  2
BEAMDI
 70
     1
  0
ATTDEF
  5
3F5
330
3E4
100
AcDbEntity
  8
ASHADE
  6
Continuous
 62
     7
100
AcDbText
 10
0.0
 20
-0.3
 30
0.0
 40
0.01
  1
0.0
100
AcDbAttributeDefinition
  3
Cone Delta
  2
CONEDE
 70
     1
  0
ATTDEF
  5
3F6
330
3E4
100
AcDbEntity
  8
ASHADE
  6
Continuous
 62
     7
100
AcDbText
 10
0.0
 20
-0.2850000000000001
 30
0.0
 40
0.01
  1
10.0
100
AcDbAttributeDefinition
  3
Cone Angle
  2
CONEAN
 70
     1
  0
ATTDEF
  5
3F7
330
3E4
100
AcDbEntity
  8
ASHADE
  6
Continuous
 62
     7
100
AcDbText
 10
0.0
 20
-0.27
 30
0.0
 40
0.01
  1
-1
100
AcDbAttributeDefinition
  3
*not used*
  2
BIASMAX
 70
     1
  0
ATTDEF
  5
3F8
330
3E4
100
AcDbEntity
  8
ASHADE
  6
Continuous
 62
     7
100
AcDbText
 10
0.0
 20
-0.255
 30
0.0
 40
0.01
  1
-1
100
AcDbAttributeDefinition
  3
*not used*
  2
BIASMIN
 70
     1
  0
ATTDEF
  5
3F9
330
3E4
100
AcDbEntity
  8
ASHADE
  6
Continuous
 62
     7
100
AcDbText
 10
0.0
 20
-0.225
 30
0.0
 40
0.01
  1
1,1,1
100
AcDbAttributeDefinition
  3
Light Color (RGB)
  2
COLOR
 70
     1
  0
ATTDEF
  5
3FA
330
3E4
100
AcDbEntity
  8
ASHADE
  6
Continuous
 62
     7
100
AcDbText
 10
0.0
 20
-0.21
 30
0.0
 40
0.01
  1
1
100
AcDbAttributeDefinition
  3
Light Intensity
  2
INTENSITY
 70
     1
  0
ATTDEF
  5
3FB
330
3E4
100
AcDbEntity
  8
ASHADE
  6
Continuous
 62
     7
100
AcDbText
 10
0.0
 20
-0.15
 30
0.0
 40
0.01
  1

100
AcDbAttributeDefinition
  3

  2
GNAME
 70
     1
  0
ATTDEF
  5
3FC
330
3E4
100
AcDbEntity
  8
ASHADE
  6
Continuous
 62
     7
100
AcDbText
 10
0.0
 20
-0.195
 30
0.0
 40
0.01
  1

100
AcDbAttributeDefinition
  3
Look-at Z
  2
LAZ
 70
     1
  0
ATTDEF
  5
3FD
330
3E4
100
AcDbEntity
  8
ASHADE
  6
Continuous
 62
     7
100
AcDbText
 10
0.0
 20
-0.18
 30
0.0
 40
0.01
  1

100
AcDbAttributeDefinition
  3
Look-at Y
  2
LAY
 70
     1
  0
ATTDEF
  5
3FE
330
3E4
100
AcDbEntity
  8
ASHADE
  6
Continuous
 62
     7
100
AcDbText
 10
0.0
 20
-0.165
 30
0.0
 40
0.01
  1

100
AcDbAttributeDefinition
  3
Look-at X
  2
LAX
 70
     1
  0
LINE
  5
3FF
330
3E4
100
AcDbEntity
  8
ASHADE
  6
Continuous
 62
     7
100
AcDbLine
 10
0.25
 20
-0.3399999999999999
 30
0.0
 11
0.25
 21
-0.13
 31
0.0
  0
LINE
  5
400
330
3E4
100
AcDbEntity
  8
ASHADE
  6
Continuous
 62
     7
100
AcDbLine
 10
0.25
 20
-0.18
 30
0.0
 11
0.29
 21
-0.18
 31
0.0
  0
LINE
  5
401
330
3E4
100
AcDbEntity
  8
ASHADE
  6
Continuous
 62
     7
100
AcDbLine
 10
0.29
 20
-0.22
 30
0.0
 11
0.25
 21
-0.22
 31
0.0
  0
LINE
  5
402
330
3E4
100
AcDbEntity
  8
ASHADE
  6
Continuous
 62
     7
100
AcDbLine
 10
0.29
 20
-0.18
 30
0.0
 11
0.29
 21
-0.22
 31
0.0
  0
LINE
  5
403
330
3E4
100
AcDbEntity
  8
ASHADE
  6
Continuous
 62
     7
100
AcDbLine
 10
0.21
 20
0.26
 30
0.0
 11
0.301304347826087
 21
0.46
 31
0.0
  0
LINE
  5
404
330
3E4
100
AcDbEntity
  8
ASHADE
  6
Continuous
 62
     7
100
AcDbLine
 10
0.1045454545454545
 20
0.26
 30
0.0
 11
0.15
 21
0.46
 31
0.0
  0
LINE
  5
405
330
3E4
100
AcDbEntity
  8
ASHADE
  6
Continuous
 62
     7
100
AcDbLine
 10
0.0
 20
0.26
 30
0.0
 11
0.0
 21
0.46
 31
0.0
  0
LINE
  5
406
330
3E4
100
AcDbEntity
  8
ASHADE
  6
Continuous
 62
     7
100
AcDbLine
 10
0.25
 20
0.13
 30
0.0
 11
0.25
 21
0.26
 31
0.0
  0
LINE
  5
407
330
3E4
100
AcDbEntity
  8
ASHADE
  6
Continuous
 62
     7
100
AcDbLine
 10
0.25
 20
0.22
 30
0.0
 11
0.29
 21
0.22
 31
0.0
  0
LINE
  5
408
330
3E4
100
AcDbEntity
  8
ASHADE
  6
Continuous
 62
     7
100
AcDbLine
 10
0.29
 20
0.1799999999999999
 30
0.0
 11
0.25
 21
0.1799999999999999
 31
0.0
  0
LINE
  5
409
330
3E4
100
AcDbEntity
  8
ASHADE
  6
Continuous
 62
     7
100
AcDbLine
 10
0.29
 20
0.22
 30
0.0
 11
0.29
 21
0.1799999999999999
 31
0.0
  0
ENDBLK
  5
40B
330
3E4
100
AcDbEntity
  8
0
100
AcDbBlockEnd
  0
BLOCK
  5
94C
330
942
100
AcDbEntity
  8
0
100
AcDbBlockBegin
  2
*D6
 70
     1
 10
0.0
 20
0.0
 30
0.0
  3
*D6
  1

  0
LINE
  5
A4D
330
942
100
AcDbEntity
  8
0
 62
     0
370
    -2
100
AcDbLine
 10
-216.495
 20
0.0000000000000192
 30
0.0
 11
-225.9596835418746
 21
0.0000000000000218
 31
0.0
  0
LINE
  5
A4E
330
942
100
AcDbEntity
  8
0
 62
     0
370
    -2
100
AcDbLine
 10
-216.495
 20
42.50000000000003
 30
0.0
 11
-225.9596835418746
 21
42.50000000000003
 31
0.0
  0
LINE
  5
A4F
330
942
100
AcDbEntity
  8
0
 62
     0
370
    -2
100
AcDbLine
 10
-224.7096835418746
 20
2.500000000000021
 30
0.0
 11
-224.7096835418746
 21
40.00000000000003
 31
0.0
  0
SOLID
  5
A50
330
942
100
AcDbEntity
  8
0
 62
     0
100
AcDbTrace
 10
-225.1263502085413
 20
2.500000000000021
 30
0.0
 11
-224.2930168752079
 21
2.500000000000021
 31
0.0
 12
-224.7096835418746
 22
0.0000000000000215
 32
0.0
 13
-224.7096835418746
 23
0.0000000000000215
 33
0.0
  0
SOLID
  5
A51
330
942
100
AcDbEntity
  8
0
 62
     0
100
AcDbTrace
 10
-225.1263502085413
 20
40.00000000000003
 30
0.0
 11
-224.2930168752079
 21
40.00000000000003
 31
0.0
 12
-224.7096835418746
 22
42.50000000000003
 32
0.0
 13
-224.7096835418746
 23
42.50000000000003
 33
0.0
  0
MTEXT
  5
A52
330
942
100
AcDbEntity
  8
0
 62
     0
100
AcDbMText
 10
-231.1680168752079
 20
21.25
 30
0.0
 40
10.0
 41
0.0
 71
     5
 72
     1
  1
42,5
 11
0.0000000000000001
 21
1.0
 31
0.0
 73
     1
 44
1.0
  0
POINT
  5
A53
330
942
100
AcDbEntity
  8
Defpoints
 62
     0
100
AcDbPoint
 10
-215.87
 20
0.000000000000019
 30
0.0000000000000132
  0
POINT
  5
A54
330
942
100
AcDbEntity
  8
Defpoints
 62
     0
100
AcDbPoint
 10
-215.87
 20
42.50000000000003
 30
0.0000000000000132
  0
POINT
  5
A55
330
942
100
AcDbEntity
  8
Defpoints
 62
     0
100
AcDbPoint
 10
-224.7096835418746
 20
42.50000000000003
 30
0.0
  0
ENDBLK
  5
94D
330
942
100
AcDbEntity
  8
0
100
AcDbBlockEnd
  0
BLOCK
  5
97C
330
972
100
AcDbEntity
  8
0
100
AcDbBlockBegin
  2
*D7
 70
     1
 10
0.0
 20
0.0
 30
0.0
  3
*D7
  1

  0
LINE
  5
A56
330
972
100
AcDbEntity
  8
0
 62
     0
370
    -2
100
AcDbLine
 10
-218.5962862703375
 20
93.36259402166948
 30
0.0
 11
-225.4221680349168
 21
95.19158352811887
 31
0.0
  0
LINE
  5
A57
330
972
100
AcDbEntity
  8
0
 62
     0
370
    -2
100
AcDbLine
 10
-214.0962862703374
 20
110.1568226557294
 30
0.0
 11
-220.9221680349167
 21
111.9858121621787
 31
0.0
  0
LINE
  5
A58
330
972
100
AcDbEntity
  8
0
 62
     0
370
    -2
100
AcDbLine
 10
-223.5677131392992
 20
97.28287428746339
 30
0.0
 11
-220.3618083648117
 21
109.2474737900779
 31
0.0
  0
SOLID
  5
A59
330
972
100
AcDbEntity
  8
0
 62
     0
100
AcDbTrace
 10
-223.9701822335863
 20
97.39071555625612
 30
0.0
 11
-223.1652440450121
 21
97.17503301867067
 31
0.0
 12
-224.2147607520555
 22
94.86805972174071
 32
0.0
 13
-224.2147607520555
 23
94.86805972174071
 33
0.0
  0
SOLID
  5
A5A
330
972
100
AcDbEntity
  8
0
 62
     0
100
AcDbTrace
 10
-220.7642774590989
 20
109.3553150588707
 30
0.0
 11
-219.9593392705246
 21
109.1396325212852
 31
0.0
 12
-219.7147607520554
 22
111.6622883558006
 32
0.0
 13
-219.7147607520554
 23
111.6622883558006
 33
0.0
  0
MTEXT
  5
A5B
330
972
100
AcDbEntity
  8
0
 62
     0
100
AcDbMText
 10
-227.3980935249315
 20
104.7210311674724
 30
0.0
 40
10.0
 41
0.0
 71
     5
 72
     1
  1
18
 11
0.2588190451025259
 21
0.9659258262890668
 31
0.0
 73
     1
 44
1.0
  0
POINT
  5
A5C
330
972
100
AcDbEntity
  8
Defpoints
 62
     0
100
AcDbPoint
 10
-217.9925826289069
 20
93.20083211848041
 30
0.0
  0
POINT
  5
A5D
330
972
100
AcDbEntity
  8
Defpoints
 62
     0
100
AcDbPoint
 10
-213.4925826289067
 20
109.9950607525403
 30
0.0
  0
POINT
  5
A5E
330
972
100
AcDbEntity
  8
Defpoints
 62
     0
100
AcDbPoint
 10
-219.7147607520554
 20
111.6622883558006
 30
0.0
  0
ENDBLK
  5
97D
330
972
100
AcDbEntity
  8
0
100
AcDbBlockEnd
  0
BLOCK
  5
9BE
330
9B4
100
AcDbEntity
  8
0
100
AcDbBlockBegin
  2
*D8
 70
     1
 10
0.0
 20
0.0
 30
0.0
  3
*D8
  1

  0
LINE
  5
A44
330
9B4
100
AcDbEntity
  8
0
 62
     0
370
    -2
100
AcDbLine
 10
-215.87
 20
-0.624999999999981
 30
0.0
 11
-215.87
 21
-17.57878270772169
 31
0.0
  0
LINE
  5
A45
330
9B4
100
AcDbEntity
  8
0
 62
     0
370
    -2
100
AcDbLine
 10
0.0
 20
-0.625
 30
0.0
 11
-0.0000000000000011
 21
-17.57878270772169
 31
0.0
  0
LINE
  5
A46
330
9B4
100
AcDbEntity
  8
0
 62
     0
370
    -2
100
AcDbLine
 10
-213.37
 20
-16.32878270772169
 30
0.0
 11
-2.5
 21
-16.32878270772169
 31
0.0
  0
SOLID
  5
A47
330
9B4
100
AcDbEntity
  8
0
 62
     0
100
AcDbTrace
 10
-213.37
 20
-15.91211604105502
 30
0.0
 11
-213.37
 21
-16.74544937438836
 31
0.0
 12
-215.87
 22
-16.32878270772169
 32
0.0
 13
-215.87
 23
-16.32878270772169
 33
0.0
  0
SOLID
  5
A48
330
9B4
100
AcDbEntity
  8
0
 62
     0
100
AcDbTrace
 10
-2.5
 20
-15.91211604105502
 30
0.0
 11
-2.5
 21
-16.74544937438836
 31
0.0
 12
-0.000000000000001
 22
-16.32878270772169
 32
0.0
 13
-0.000000000000001
 23
-16.32878270772169
 33
0.0
  0
MTEXT
  5
A49
330
9B4
100
AcDbEntity
  8
0
 62
     0
100
AcDbMText
 10
-107.935
 20
-10.70378270772169
 30
0.0
 40
10.0
 41
0.0
 71
     5
 72
     1
  1
216
 73
     1
 44
1.0
  0
POINT
  5
A4A
330
9B4
100
AcDbEntity
  8
Defpoints
 62
     0
100
AcDbPoint
 10
-215.87
 20
0.000000000000019
 30
0.0
  0
POINT
  5
A4B
330
9B4
100
AcDbEntity
  8
Defpoints
 62
     0
100
AcDbPoint
 10
0.0
 20
0.0
 30
0.0
  0
POINT
  5
A4C
330
9B4
100
AcDbEntity
  8
Defpoints
 62
     0
100
AcDbPoint
 10
-0.000000000000001
 20
-16.32878270772169
 30
0.0
  0
ENDBLK
  5
9BF
330
9B4
100
AcDbEntity
  8
0
100
AcDbBlockEnd
  0
BLOCK
  5
B20
330
B1E
100
AcDbEntity
  8
0
100
AcDbBlockBegin
  2
GENAXEH
 70
     0
 10
0.0
 20
0.0
 30
0.0
  3
GENAXEH
  1

  0
LINE
  5
B1F
330
B1E
100
AcDbEntity
  8
0
100
AcDbLine
 10
-1.0
 20
0.0
 30
0.0
 11
1.0
 21
0.0
 31
0.0
  0
ENDBLK
  5
B21
330
B1E
100
AcDbEntity
  8
0
100
AcDbBlockEnd
  0
ENDSEC
  0
SECTION
  2
ENTITIES
  0
INSERT
  5
32E
330
1F
100
AcDbEntity
  8
ASHADE
 62
     1
100
AcDbBlockReference
  2
AVE_RENDER
 10
0.0
 20
0.0
 30
0.0
1001
AVE_RENDER
1002
{
1070
     7
1000
Pref
1070
    60
1070
    40
1070
     1
1070
     0
1000

1070
    10
1070
     1
1070
    10
1040
1.0
1070
     1
1040
0.7
1040
1.0
1040
0.0
1040
10.0
1010
-1.0
1020
-1.0
1030
-1.0
1040
1.0
1070
    49
1070
     1
1070
     0
1010
1.0
1020
1.0
1030
1.0
1040
45.0
1070
     1
1070
     0
1000
WCS
1040
0.0
1070
     1
1040
10.0
1002
}
  0
INSERT
  5
32F
330
1F
100
AcDbEntity
  8
ASHADE
 62
     3
100
AcDbBlockReference
  2
AVE_RENDER
 10
0.0
 20
0.0
 30
0.0
1001
AVE_RENDER
1002
{
1070
     0
1000
Full Opt
1070
     0
1070
     1
1070
     1
1070
     1
1070
     0
1070
     0
1070
     0
1070
     1
1070
     1
1040
0.0001
1040
0.0001
1002
}
  0
INSERT
  5
330
330
1F
100
AcDbEntity
  8
ASHADE
 62
     4
100
AcDbBlockReference
  2
AVE_RENDER
 10
0.0
 20
0.0
 30
0.0
1001
AVE_RENDER
1002
{
1070
     0
1000
Quick Opt
1070
     0
1070
     1
1070
     1
1070
     1
1070
     0
1070
     0
1070
     1
1002
}
  0
INSERT
  5
331
330
1F
100
AcDbEntity
  8
ASHADE
 62
     5
100
AcDbBlockReference
  2
AVE_RENDER
 10
0.0
 20
0.0
 30
0.0
1001
AVE_RENDER
1002
{
1070
     1
1000
Scanl Opt
1070
     2
1070
     0
1070
     2
1040
2.0
1040
4.0
1070
     0
1070
     1
1070
     0
1040
0.03
1002
}
  0
INSERT
  5
332
330
1F
100
AcDbEntity
  8
ASHADE
 62
     6
100
AcDbBlockReference
  2
AVE_RENDER
 10
0.0
 20
0.0
 30
0.0
1001
AVE_RENDER
1002
{
1070
     2
1000
Raytr Opt
1070
     5
1070
     0
1070
     3
1040
2.0
1040
4.0
1070
     0
1070
     1
1070
     1
1040
0.03
1070
     3
1040
0.03
1002
}
  0
INSERT
  5
333
330
1F
100
AcDbEntity
  8
ASHADE
 62
     7
100
AcDbBlockReference
  2
AVE_RENDER
 10
0.0
 20
0.0
 30
0.0
1001
AVE_RENDER
1002
{
1070
     0
1000
RFile Opt
1070
     5
1070
  2048
1070
  1366
1070
 10000
1070
     1
1070
    32
1070
    24
1070
     0
1070
     0
1070
     0
1070
     0
1070
     0
1070
     0
1070
     0
1002
}
  0
INSERT
  5
334
330
1F
100
AcDbEntity
  8
ASHADE
 62
     8
100
AcDbBlockReference
  2
AVE_RENDER
 10
0.0
 20
0.0
 30
0.0
1001
AVE_RENDER
1002
{
1070
     0
1000
Fog Opt
1070
     0
1070
     0
1040
0.0
1040
1.0
1040
0.0
1040
1.0
1010
0.5
1020
0.5
1030
0.5
1002
}
  0
INSERT
  5
335
330
1F
100
AcDbEntity
  8
ASHADE
 62
     9
100
AcDbBlockReference
  2
AVE_RENDER
 10
0.0
 20
0.0
 30
0.0
1001
AVE_RENDER
1002
{
1070
     0
1000
BG Opt
1070
     0
1070
     1
1010
0.0
1020
0.0
1030
0.0
1010
1.0
1020
0.0
1030
0.0
1010
0.0
1020
1.0
1030
0.0
1010
0.0
1020
0.0
1030
1.0
1040
0.5
1040
0.33
1040
0.0
1000

1070
     1
1000

1070
     1
1070
     1
1040
1.0
1040
1.0
1040
0.0
1040
0.0
1070
     0
1002
}
  0
INSERT
  5
33C
330
1F
100
AcDbEntity
  8
ASHADE
 62
     1
100
AcDbBlockReference
  2
AVE_GLOBAL
 10
0.0
 20
0.0
 30
0.0
1001
AVE_MATERIAL
1002
{
1000
*GLOBAL*
1000
2
1000
Global finish.
1002
{
1002
}
1002
{
1070
    63
1002
{
1002
{
1010
-1.0
1020
-1.0
1030
-1.0
1002
}
1040
0.6999999880790711
1000

1040
0.0
1002
{
1002
}
1040
0.0
1002
{
1002
}
1040
0.0
1002
}
1002
{
1002
{
1010
-1.0
1020
-1.0
1030
-1.0
1002
}
1040
1.0
1000

1040
0.0
1002
{
1002
}
1040
0.0
1002
{
1002
}
1040
0.0
1002
}
1002
{
1002
{
1010
-1.0
1020
-1.0
1030
-1.0
1002
}
1040
0.2000000029802322
1000

1040
0.0
1002
{
1002
}
1040
0.0
1002
{
1002
}
1040
0.0
1002
}
1002
{
1070
     0
1002
{
1070
     1
1002
{
1040
1.0
1040
1.0
1000

1040
0.0
1002
{
1002
}
1040
0.0
1002
{
1002
}
1040
0.0
1002
}
1002
}
1040
1.0
1040
0.0
1040
0.0
1002
}
1002
{
1040
1.0
1040
1.0
1000

1040
0.0
1002
{
1002
}
1040
0.0
1002
{
1002
}
1040
0.0
1002
}
1002
{
1040
0.5
1040
1.0
1000

1040
0.0
1002
{
1002
}
1040
0.0
1002
{
1002
}
1040
0.0
1002
}
1002
{
1070
     0
1040
0.0
1002
{
1002
}
1040
1.0
1002
{
1002
}
1040
0.0
1002
}
1002
{
1040
0.0
1002
{
1002
{
1010
0.0
1020
0.0
1030
0.0
1002
}
1040
1.0
1000

1040
0.0
1002
{
1002
}
1040
0.0
1002
{
1002
}
1040
0.0
1002
}
1002
}
1002
{
1002
{
1070
     1
1002
{
1040
0.0
1040
1.0
1000

1040
0.0
1002
{
1002
}
1040
0.0
1002
{
1002
}
1040
0.0
1002
}
1002
}
1040
0.0
1002
{
1002
}
1010
1.0
1020
0.0
1030
0.0
1010
0.0
1020
1.0
1030
0.0
1010
0.0
1020
0.0
1030
1.0
1070
     0
1002
}
1002
{
1002
{
1040
1.0
1040
1.0
1002
{
1070
     1
1002
{
1040
1.0
1040
1.0
1000

1040
0.0
1002
{
1002
}
1040
0.0
1002
{
1002
}
1040
0.0
1002
}
1002
}
1002
}
1070
     0
1040
0.0
1002
{
1002
}
1002
}
1002
{
1002
}
1002
}
1002
{
1071
        3
1070
     3
1070
     0
1002
{
1070
     2
1070
     0
1070
     0
1040
0.0
1002
}
1070
     0
1070
     2
1002
{
1002
}
1002
}
1002
{
1040
8030.0
1040
190.3000030517578
1040
0.3050000071525574
1040
228.0
1040
545.0
1040
14.0
1040
17.39999961853027
1040
0.4560000002384186
1002
}
1002
}
  0
INSERT
  5
358
330
1F
100
AcDbEntity
  8
0
100
AcDbBlockReference
 66
     1
  2
RM_SDB
 10
0.0
 20
0.0
 30
0.0
1001
AVE_MATERIAL
1002
{
1000
CHROME METAL
1000
2
1000

1002
{
1002
}
1002
{
1070
   295
1002
{
1002
{
1010
0.0
1020
0.0
1030
0.0
1002
}
1040
0.5
1000

1040
0.0
1002
{
1002
}
1040
0.0
1002
{
1002
}
1040
0.0
1002
}
1002
{
1002
{
1010
0.0
1020
0.0
1030
0.0
1002
}
1040
1.0
1000

1040
0.0
1002
{
1002
}
1040
0.0
1002
{
1002
}
1040
0.0
1002
}
1002
{
1002
{
1010
0.9971989393234252
1020
0.9971989393234252
1030
0.9971989393234252
1002
}
1040
0.6999999880790711
1000

1040
0.0
1002
{
1002
}
1040
0.0
1002
{
1002
}
1040
0.0
1002
}
1002
{
1070
     0
1002
{
1070
     1
1002
{
1040
1.0
1040
1.0
1000

1040
0.0
1002
{
1002
}
1040
0.0
1002
{
1002
}
1040
0.0
1002
}
1002
}
1040
0.0
1040
0.0
1040
0.0
1002
}
1002
{
1040
0.0
1040
0.0
1000

1040
0.0
1002
{
1002
}
1040
0.0
1002
{
1002
}
1040
0.0
1002
}
1002
{
1040
0.6999999880790711
1040
1.0
1000

1040
0.0
1002
{
1002
}
1040
0.0
1002
{
1002
}
1040
0.0
1002
}
1002
{
1070
     0
1040
0.0
1002
{
1002
}
1040
0.0
1002
{
1002
}
1040
0.0
1002
}
1002
{
1040
0.0
1002
{
1002
{
1010
0.0
1020
0.0
1030
0.0
1002
}
1040
0.0
1000

1040
0.0
1002
{
1002
}
1040
0.0
1002
{
1002
}
1040
0.0
1002
}
1002
}
1002
{
1002
{
1070
     1
1002
{
1040
1.0
1040
1.0
1000

1040
0.0
1002
{
1002
}
1040
0.0
1002
{
1002
}
1040
0.0
1002
}
1002
}
1040
1.0
1002
{
1002
{
1070
     1
1002
{
1002
{
1000
refmap.tga
1002
{
1002
}
1070
     3
1070
     0
1002
{
1002
}
1002
}
1002
{
1002
{
1040
1.0
1040
0.0
1070
     1
1002
}
1002
{
1040
1.0
1040
0.0
1070
     1
1002
}
1040
0.0
1070
     0
1002
}
1002
}
1002
}
1002
{
1002
}
1002
}
1010
1.0
1020
0.0
1030
0.0
1010
0.0
1020
1.0
1030
0.0
1010
0.0
1020
0.0
1030
1.0
1070
     6
1002
}
1002
{
1002
{
1040
0.0
1040
0.0
1002
{
1070
     0
1002
}
1002
}
1070
     0
1040
0.0
1002
{
1002
}
1002
}
1002
{
1002
}
1002
}
1002
{
1071
        1
1070
     3
1070
     0
1002
{
1070
     2
1070
     1
1070
     0
1040
0.0
1002
}
1070
     0
1070
     2
1002
{
1002
}
1002
}
1002
{
1040
0.0
1040
0.0
1040
0.0
1040
0.0
1040
0.0
1040
0.0
1040
0.0
1040
0.0
1002
}
1002
}
  0
ATTRIB
  5
359
330
358
100
AcDbEntity
  8
0
100
AcDbText
 10
0.0
 20
0.0
 30
0.0
 40
0.2
  1
CHROME METAL
100
AcDbAttribute
  2
NAME
 70
     1
  0
ATTRIB
  5
35A
330
358
100
AcDbEntity
  8
0
100
AcDbText
 10
0.0
 20
0.0
 30
0.0
 40
0.2
  1
 
100
AcDbAttribute
  2
ACADCOLOR
 70
     1
  0
ATTRIB
  5
35B
330
358
100
AcDbEntity
  8
0
100
AcDbText
 10
0.0
 20
0.0
 30
0.0
 40
0.2
  1
0.0000,0.0000,0.0000
100
AcDbAttribute
  2
COLOR
 70
     1
  0
ATTRIB
  5
35C
330
358
100
AcDbEntity
  8
0
100
AcDbText
 10
0.0
 20
0.0
 30
0.0
 40
0.2
  1
1.0,1.0,1.0
100
AcDbAttribute
  2
OPACITY
 70
     1
  0
ATTRIB
  5
35D
330
358
100
AcDbEntity
  8
0
100
AcDbText
 10
0.0
 20
0.0
 30
0.0
 40
0.2
  1
("nullsurf" "")
100
AcDbAttribute
  2
SURFACE
 70
     1
  0
ATTRIB
  5
35E
330
358
100
AcDbEntity
  8
0
100
AcDbText
 10
0.0
 20
0.0
 30
0.0
 40
0.2
  1
(11 "Ka" "0.5")(11 "Kd" "1")(11 "Ks" "0.7")(11 "roughness" "0.7")
100
AcDbAttribute
  2
SURF1
 70
     1
  0
ATTRIB
  5
35F
330
358
100
AcDbEntity
  8
0
100
AcDbText
 10
0.0
 20
0.0
 30
0.0
 40
0.2
  1

100
AcDbAttribute
  2
SURF2
 70
     1
  0
ATTRIB
  5
360
330
358
100
AcDbEntity
  8
0
100
AcDbText
 10
0.0
 20
0.0
 30
0.0
 40
0.2
  1

100
AcDbAttribute
  2
SURF3
 70
     1
  0
ATTRIB
  5
361
330
358
100
AcDbEntity
  8
0
100
AcDbText
 10
0.0
 20
0.0
 30
0.0
 40
0.2
  1

100
AcDbAttribute
  2
SURF4
 70
     1
  0
ATTRIB
  5
362
330
358
100
AcDbEntity
  8
0
100
AcDbText
 10
0.0
 20
0.0
 30
0.0
 40
0.2
  1
-1.0
100
AcDbAttribute
  2
SHADINGRATE
 70
     1
  0
ATTRIB
  5
363
330
358
100
AcDbEntity
  8
0
100
AcDbText
 10
0.0
 20
0.0
 30
0.0
 40
0.2
  1
("nulldisp" "")
100
AcDbAttribute
  2
DISPLACEMENT
 70
     1
  0
ATTRIB
  5
364
330
358
100
AcDbEntity
  8
0
100
AcDbText
 10
0.0
 20
0.0
 30
0.0
 40
0.2
  1

100
AcDbAttribute
  2
DISP1
 70
     1
  0
ATTRIB
  5
365
330
358
100
AcDbEntity
  8
0
100
AcDbText
 10
0.0
 20
0.0
 30
0.0
 40
0.2
  1

100
AcDbAttribute
  2
DISP2
 70
     1
  0
ATTRIB
  5
366
330
358
100
AcDbEntity
  8
0
100
AcDbText
 10
0.0
 20
0.0
 30
0.0
 40
0.2
  1

100
AcDbAttribute
  2
DISP3
 70
     1
  0
ATTRIB
  5
367
330
358
100
AcDbEntity
  8
0
100
AcDbText
 10
0.0
 20
0.0
 30
0.0
 40
0.2
  1

100
AcDbAttribute
  2
DISP4
 70
     1
  0
ATTRIB
  5
368
330
358
100
AcDbEntity
  8
0
100
AcDbText
 10
0.0
 20
0.0
 30
0.0
 40
0.2
  1
0.0
100
AcDbAttribute
  2
DBOUND
 70
     1
  0
ATTRIB
  5
369
330
358
100
AcDbEntity
  8
0
100
AcDbText
 10
0.0
 20
0.0
 30
0.0
 40
0.2
  1
0
100
AcDbAttribute
  2
SMOOTH
 70
     1
  0
ATTRIB
  5
36A
330
358
100
AcDbEntity
  8
0
100
AcDbText
 10
0.0
 20
0.0
 30
0.0
 40
0.2
  1
("" "")
100
AcDbAttribute
  2
ATMOSHPERE
 70
     1
  0
ATTRIB
  5
36B
330
358
100
AcDbEntity
  8
0
100
AcDbText
 10
0.0
 20
0.0
 30
0.0
 40
0.2
  1

100
AcDbAttribute
  2
ATMO1
 70
     1
  0
ATTRIB
  5
36C
330
358
100
AcDbEntity
  8
0
100
AcDbText
 10
0.0
 20
0.0
 30
0.0
 40
0.2
  1

100
AcDbAttribute
  2
ATMO2
 70
     1
  0
ATTRIB
  5
36D
330
358
100
AcDbEntity
  8
0
100
AcDbText
 10
0.0
 20
0.0
 30
0.0
 40
0.2
  1

100
AcDbAttribute
  2
ATMO3
 70
     1
  0
ATTRIB
  5
36E
330
358
100
AcDbEntity
  8
0
100
AcDbText
 10
0.0
 20
0.0
 30
0.0
 40
0.2
  1

100
AcDbAttribute
  2
ATMO4
 70
     1
  0
ATTRIB
  5
36F
330
358
100
AcDbEntity
  8
0
100
AcDbText
 10
0.0
 20
0.0
 30
0.0
 40
0.2
  1
0.0 0.0 1.0 0.0 0.0 1.0 1.0 1.0
100
AcDbAttribute
  2
TCCORD
 70
     1
  0
SEQEND
  5
370
330
358
100
AcDbEntity
  8
0
  0
INSERT
  5
371
330
1F
100
AcDbEntity
  8
0
100
AcDbBlockReference
 66
     1
  2
RM_SDB
 10
0.0
 20
0.0
 30
0.0
1001
AVE_MATERIAL
1002
{
1000
GRAY SEMIGLOSS
1000
2
1000

1002
{
1002
}
1002
{
1070
   295
1002
{
1002
{
1010
1.0
1020
1.0
1030
1.0
1002
}
1040
0.6627451181411744
1000

1040
0.0
1002
{
1002
}
1040
0.0
1002
{
1002
}
1040
0.0
1002
}
1002
{
1002
{
1010
1.0
1020
1.0
1030
1.0
1002
}
1040
0.6627451181411744
1000

1040
0.0
1002
{
1002
}
1040
0.0
1002
{
1002
}
1040
0.0
1002
}
1002
{
1002
{
1010
1.0
1020
1.0
1030
1.0
1002
}
1040
0.3600000143051147
1000

1040
0.0
1002
{
1002
}
1040
0.0
1002
{
1002
}
1040
0.0
1002
}
1002
{
1070
     0
1002
{
1070
     1
1002
{
1040
1.0
1040
1.0
1000

1040
0.0
1002
{
1002
}
1040
0.0
1002
{
1002
}
1040
0.0
1002
}
1002
}
1040
0.0
1040
0.0
1040
0.0
1002
}
1002
{
1040
0.0
1040
0.0
1000

1040
0.0
1002
{
1002
}
1040
0.0
1002
{
1002
}
1040
0.0
1002
}
1002
{
1040
0.8199999928474426
1040
1.0
1000

1040
0.0
1002
{
1002
}
1040
0.0
1002
{
1002
}
1040
0.0
1002
}
1002
{
1070
     0
1040
0.0
1002
{
1002
}
1040
0.0
1002
{
1002
}
1040
0.0
1002
}
1002
{
1040
0.0
1002
{
1002
{
1010
0.0
1020
0.0
1030
0.0
1002
}
1040
0.0
1000

1040
0.0
1002
{
1002
}
1040
0.0
1002
{
1002
}
1040
0.0
1002
}
1002
}
1002
{
1002
{
1070
     1
1002
{
1040
0.3600000143051147
1040
1.0
1000

1040
0.0
1002
{
1002
}
1040
0.0
1002
{
1002
}
1040
0.0
1002
}
1002
}
1040
0.0
1002
{
1002
}
1010
0.0
1020
0.0
1030
0.0
1010
0.0
1020
0.0
1030
0.0
1010
0.0
1020
0.0
1030
0.0
1070
     0
1002
}
1002
{
1002
{
1040
0.0
1040
0.0
1002
{
1070
     0
1002
}
1002
}
1070
     0
1040
0.0
1002
{
1002
}
1002
}
1002
{
1002
}
1002
}
1002
{
1071
        2
1070
     3
1070
     0
1002
{
1070
     2
1070
     1
1070
     0
1040
0.0
1002
}
1070
     0
1070
     2
1002
{
1002
}
1002
}
1002
{
1040
0.0
1040
0.0
1040
0.0
1040
0.0
1040
0.0
1040
0.0
1040
0.0
1040
0.0
1002
}
1002
}
  0
ATTRIB
  5
372
330
371
100
AcDbEntity
  8
0
100
AcDbText
 10
0.0
 20
0.0
 30
0.0
 40
0.2
  1
GRAY SEMIGLOSS
100
AcDbAttribute
  2
NAME
 70
     1
  0
ATTRIB
  5
373
330
371
100
AcDbEntity
  8
0
100
AcDbText
 10
0.0
 20
0.0
 30
0.0
 40
0.2
  1

100
AcDbAttribute
  2
ACADCOLOR
 70
     1
  0
ATTRIB
  5
374
330
371
100
AcDbEntity
  8
0
100
AcDbText
 10
0.0
 20
0.0
 30
0.0
 40
0.2
  1
1.0000,1.0000,1.0000
100
AcDbAttribute
  2
COLOR
 70
     1
  0
ATTRIB
  5
375
330
371
100
AcDbEntity
  8
0
100
AcDbText
 10
0.0
 20
0.0
 30
0.0
 40
0.2
  1
1.0,1.0,1.0
100
AcDbAttribute
  2
OPACITY
 70
     1
  0
ATTRIB
  5
376
330
371
100
AcDbEntity
  8
0
100
AcDbText
 10
0.0
 20
0.0
 30
0.0
 40
0.2
  1
("nullsurf" "")
100
AcDbAttribute
  2
SURFACE
 70
     1
  0
ATTRIB
  5
377
330
371
100
AcDbEntity
  8
0
100
AcDbText
 10
0.0
 20
0.0
 30
0.0
 40
0.2
  1
(11 "Ka" "0.662745")(11 "Kd" "0.662745")(11 "Ks" "0.36")(11 "roughness" "0.82")
100
AcDbAttribute
  2
SURF1
 70
     1
  0
ATTRIB
  5
378
330
371
100
AcDbEntity
  8
0
100
AcDbText
 10
0.0
 20
0.0
 30
0.0
 40
0.2
  1

100
AcDbAttribute
  2
SURF2
 70
     1
  0
ATTRIB
  5
379
330
371
100
AcDbEntity
  8
0
100
AcDbText
 10
0.0
 20
0.0
 30
0.0
 40
0.2
  1

100
AcDbAttribute
  2
SURF3
 70
     1
  0
ATTRIB
  5
37A
330
371
100
AcDbEntity
  8
0
100
AcDbText
 10
0.0
 20
0.0
 30
0.0
 40
0.2
  1

100
AcDbAttribute
  2
SURF4
 70
     1
  0
ATTRIB
  5
37B
330
371
100
AcDbEntity
  8
0
100
AcDbText
 10
0.0
 20
0.0
 30
0.0
 40
0.2
  1
-1.0
100
AcDbAttribute
  2
SHADINGRATE
 70
     1
  0
ATTRIB
  5
37C
330
371
100
AcDbEntity
  8
0
100
AcDbText
 10
0.0
 20
0.0
 30
0.0
 40
0.2
  1
("nulldisp" "")
100
AcDbAttribute
  2
DISPLACEMENT
 70
     1
  0
ATTRIB
  5
37D
330
371
100
AcDbEntity
  8
0
100
AcDbText
 10
0.0
 20
0.0
 30
0.0
 40
0.2
  1

100
AcDbAttribute
  2
DISP1
 70
     1
  0
ATTRIB
  5
37E
330
371
100
AcDbEntity
  8
0
100
AcDbText
 10
0.0
 20
0.0
 30
0.0
 40
0.2
  1

100
AcDbAttribute
  2
DISP2
 70
     1
  0
ATTRIB
  5
37F
330
371
100
AcDbEntity
  8
0
100
AcDbText
 10
0.0
 20
0.0
 30
0.0
 40
0.2
  1

100
AcDbAttribute
  2
DISP3
 70
     1
  0
ATTRIB
  5
380
330
371
100
AcDbEntity
  8
0
100
AcDbText
 10
0.0
 20
0.0
 30
0.0
 40
0.2
  1

100
AcDbAttribute
  2
DISP4
 70
     1
  0
ATTRIB
  5
381
330
371
100
AcDbEntity
  8
0
100
AcDbText
 10
0.0
 20
0.0
 30
0.0
 40
0.2
  1
0.0
100
AcDbAttribute
  2
DBOUND
 70
     1
  0
ATTRIB
  5
382
330
371
100
AcDbEntity
  8
0
100
AcDbText
 10
0.0
 20
0.0
 30
0.0
 40
0.2
  1
0
100
AcDbAttribute
  2
SMOOTH
 70
     1
  0
ATTRIB
  5
383
330
371
100
AcDbEntity
  8
0
100
AcDbText
 10
0.0
 20
0.0
 30
0.0
 40
0.2
  1
("" "")
100
AcDbAttribute
  2
ATMOSHPERE
 70
     1
  0
ATTRIB
  5
384
330
371
100
AcDbEntity
  8
0
100
AcDbText
 10
0.0
 20
0.0
 30
0.0
 40
0.2
  1

100
AcDbAttribute
  2
ATMO1
 70
     1
  0
ATTRIB
  5
385
330
371
100
AcDbEntity
  8
0
100
AcDbText
 10
0.0
 20
0.0
 30
0.0
 40
0.2
  1

100
AcDbAttribute
  2
ATMO2
 70
     1
  0
ATTRIB
  5
386
330
371
100
AcDbEntity
  8
0
100
AcDbText
 10
0.0
 20
0.0
 30
0.0
 40
0.2
  1

100
AcDbAttribute
  2
ATMO3
 70
     1
  0
ATTRIB
  5
387
330
371
100
AcDbEntity
  8
0
100
AcDbText
 10
0.0
 20
0.0
 30
0.0
 40
0.2
  1

100
AcDbAttribute
  2
ATMO4
 70
     1
  0
ATTRIB
  5
388
330
371
100
AcDbEntity
  8
0
100
AcDbText
 10
0.0
 20
0.0
 30
0.0
 40
0.2
  1
0.0 0.0 1.0 0.0 0.0 1.0 1.0 1.0
100
AcDbAttribute
  2
TCCORD
 70
     1
  0
SEQEND
  5
389
330
371
100
AcDbEntity
  8
0
  0
INSERT
  5
38A
330
1F
100
AcDbEntity
  8
0
100
AcDbBlockReference
 66
     1
  2
RM_SDB
 10
0.0
 20
0.0
 30
0.0
1001
AVE_MATERIAL
1002
{
1000
WHITE PLASTIC
1000
2
1000

1002
{
1002
}
1002
{
1070
    39
1002
{
1002
{
1010
1.0
1020
1.0
1030
1.0
1002
}
1040
0.8078431487083435
1000

1040
0.0
1002
{
1002
}
1040
0.0
1002
{
1002
}
1040
0.0
1002
}
1002
{
1002
{
1010
1.0
1020
1.0
1030
1.0
1002
}
1040
0.8078431487083435
1000

1040
0.0
1002
{
1002
}
1040
0.0
1002
{
1002
}
1040
0.0
1002
}
1002
{
1002
{
1010
1.0
1020
1.0
1030
1.0
1002
}
1040
1.0
1000

1040
0.0
1002
{
1002
}
1040
0.0
1002
{
1002
}
1040
0.0
1002
}
1002
{
1070
     0
1002
{
1070
     1
1002
{
1040
1.0
1040
1.0
1000

1040
0.0
1002
{
1002
}
1040
0.0
1002
{
1002
}
1040
0.0
1002
}
1002
}
1040
0.0
1040
0.0
1040
0.0
1002
}
1002
{
1040
0.0
1040
0.0
1000

1040
0.0
1002
{
1002
}
1040
0.0
1002
{
1002
}
1040
0.0
1002
}
1002
{
1040
0.479999989271164
1040
1.0
1000

1040
0.0
1002
{
1002
}
1040
0.0
1002
{
1002
}
1040
0.0
1002
}
1002
{
1070
     0
1040
0.0
1002
{
1002
}
1040
0.0
1002
{
1002
}
1040
0.0
1002
}
1002
{
1040
0.0
1002
{
1002
{
1010
0.0
1020
0.0
1030
0.0
1002
}
1040
0.0
1000

1040
0.0
1002
{
1002
}
1040
0.0
1002
{
1002
}
1040
0.0
1002
}
1002
}
1002
{
1002
{
1070
     1
1002
{
1040
0.0
1040
1.0
1000

1040
0.0
1002
{
1002
}
1040
0.0
1002
{
1002
}
1040
0.0
1002
}
1002
}
1040
0.0
1002
{
1002
}
1010
0.0
1020
0.0
1030
0.0
1010
0.0
1020
0.0
1030
0.0
1010
0.0
1020
0.0
1030
0.0
1070
     0
1002
}
1002
{
1002
{
1040
0.0
1040
0.0
1002
{
1070
     0
1002
}
1002
}
1070
     0
1040
0.0
1002
{
1002
}
1002
}
1002
{
1002
}
1002
}
1002
{
1071
        0
1070
     3
1070
     0
1002
{
1070
     2
1070
     1
1070
     0
1040
0.0
1002
}
1070
     0
1070
     2
1002
{
1002
}
1002
}
1002
{
1040
0.0
1040
0.0
1040
0.0
1040
0.0
1040
0.0
1040
0.0
1040
0.0
1040
0.0
1002
}
1002
}
  0
ATTRIB
  5
38B
330
38A
100
AcDbEntity
  8
0
100
AcDbText
 10
0.0
 20
0.0
 30
0.0
 40
0.2
  1
WHITE PLASTIC
100
AcDbAttribute
  2
NAME
 70
     1
  0
ATTRIB
  5
38C
330
38A
100
AcDbEntity
  8
0
100
AcDbText
 10
0.0
 20
0.0
 30
0.0
 40
0.2
  1
 
100
AcDbAttribute
  2
ACADCOLOR
 70
     1
  0
ATTRIB
  5
38D
330
38A
100
AcDbEntity
  8
0
100
AcDbText
 10
0.0
 20
0.0
 30
0.0
 40
0.2
  1
1.0000,1.0000,1.0000
100
AcDbAttribute
  2
COLOR
 70
     1
  0
ATTRIB
  5
38E
330
38A
100
AcDbEntity
  8
0
100
AcDbText
 10
0.0
 20
0.0
 30
0.0
 40
0.2
  1
1.0,1.0,1.0
100
AcDbAttribute
  2
OPACITY
 70
     1
  0
ATTRIB
  5
38F
330
38A
100
AcDbEntity
  8
0
100
AcDbText
 10
0.0
 20
0.0
 30
0.0
 40
0.2
  1
("nullsurf" "")
100
AcDbAttribute
  2
SURFACE
 70
     1
  0
ATTRIB
  5
390
330
38A
100
AcDbEntity
  8
0
100
AcDbText
 10
0.0
 20
0.0
 30
0.0
 40
0.2
  1
(11 "Ka" "0.807843")(11 "Kd" "0.807843")(11 "Ks" "1")(11 "roughness" "0.48")
100
AcDbAttribute
  2
SURF1
 70
     1
  0
ATTRIB
  5
391
330
38A
100
AcDbEntity
  8
0
100
AcDbText
 10
0.0
 20
0.0
 30
0.0
 40
0.2
  1

100
AcDbAttribute
  2
SURF2
 70
     1
  0
ATTRIB
  5
392
330
38A
100
AcDbEntity
  8
0
100
AcDbText
 10
0.0
 20
0.0
 30
0.0
 40
0.2
  1

100
AcDbAttribute
  2
SURF3
 70
     1
  0
ATTRIB
  5
393
330
38A
100
AcDbEntity
  8
0
100
AcDbText
 10
0.0
 20
0.0
 30
0.0
 40
0.2
  1

100
AcDbAttribute
  2
SURF4
 70
     1
  0
ATTRIB
  5
394
330
38A
100
AcDbEntity
  8
0
100
AcDbText
 10
0.0
 20
0.0
 30
0.0
 40
0.2
  1
-1.0
100
AcDbAttribute
  2
SHADINGRATE
 70
     1
  0
ATTRIB
  5
395
330
38A
100
AcDbEntity
  8
0
100
AcDbText
 10
0.0
 20
0.0
 30
0.0
 40
0.2
  1
("nulldisp" "")
100
AcDbAttribute
  2
DISPLACEMENT
 70
     1
  0
ATTRIB
  5
396
330
38A
100
AcDbEntity
  8
0
100
AcDbText
 10
0.0
 20
0.0
 30
0.0
 40
0.2
  1

100
AcDbAttribute
  2
DISP1
 70
     1
  0
ATTRIB
  5
397
330
38A
100
AcDbEntity
  8
0
100
AcDbText
 10
0.0
 20
0.0
 30
0.0
 40
0.2
  1

100
AcDbAttribute
  2
DISP2
 70
     1
  0
ATTRIB
  5
398
330
38A
100
AcDbEntity
  8
0
100
AcDbText
 10
0.0
 20
0.0
 30
0.0
 40
0.2
  1

100
AcDbAttribute
  2
DISP3
 70
     1
  0
ATTRIB
  5
399
330
38A
100
AcDbEntity
  8
0
100
AcDbText
 10
0.0
 20
0.0
 30
0.0
 40
0.2
  1

100
AcDbAttribute
  2
DISP4
 70
     1
  0
ATTRIB
  5
39A
330
38A
100
AcDbEntity
  8
0
100
AcDbText
 10
0.0
 20
0.0
 30
0.0
 40
0.2
  1
0.0
100
AcDbAttribute
  2
DBOUND
 70
     1
  0
ATTRIB
  5
39B
330
38A
100
AcDbEntity
  8
0
100
AcDbText
 10
0.0
 20
0.0
 30
0.0
 40
0.2
  1
0
100
AcDbAttribute
  2
SMOOTH
 70
     1
  0
ATTRIB
  5
39C
330
38A
100
AcDbEntity
  8
0
100
AcDbText
 10
0.0
 20
0.0
 30
0.0
 40
0.2
  1
("" "")
100
AcDbAttribute
  2
ATMOSHPERE
 70
     1
  0
ATTRIB
  5
39D
330
38A
100
AcDbEntity
  8
0
100
AcDbText
 10
0.0
 20
0.0
 30
0.0
 40
0.2
  1

100
AcDbAttribute
  2
ATMO1
 70
     1
  0
ATTRIB
  5
39E
330
38A
100
AcDbEntity
  8
0
100
AcDbText
 10
0.0
 20
0.0
 30
0.0
 40
0.2
  1

100
AcDbAttribute
  2
ATMO2
 70
     1
  0
ATTRIB
  5
39F
330
38A
100
AcDbEntity
  8
0
100
AcDbText
 10
0.0
 20
0.0
 30
0.0
 40
0.2
  1

100
AcDbAttribute
  2
ATMO3
 70
     1
  0
ATTRIB
  5
3A0
330
38A
100
AcDbEntity
  8
0
100
AcDbText
 10
0.0
 20
0.0
 30
0.0
 40
0.2
  1

100
AcDbAttribute
  2
ATMO4
 70
     1
  0
ATTRIB
  5
3A1
330
38A
100
AcDbEntity
  8
0
100
AcDbText
 10
0.0
 20
0.0
 30
0.0
 40
0.2
  1
0.0 0.0 1.0 0.0 0.0 1.0 1.0 1.0
100
AcDbAttribute
  2
TCCORD
 70
     1
  0
SEQEND
  5
3A2
330
38A
100
AcDbEntity
  8
0
  0
LINE
  5
43D
330
1F
100
AcDbEntity
  8
0
370
    40
100
AcDbLine
 10
0.0
 20
0.0
 30
0.0
 11
0.0000000000000026
 21
42.5
 31
0.0
  0
LINE
  5
456
102
{ACAD_REACTORS
330
9CA
102
}
330
1F
100
AcDbEntity
  8
0
370
    40
100
AcDbLine
 10
0.0
 20
0.0
 30
0.0
 11
-138.87
 21
0.000000000000017
 31
0.0000000000000085
  0
LINE
  5
457
330
1F
100
AcDbEntity
  8
0
100
AcDbLine
 10
-138.87
 20
0.000000000000017
 30
0.0000000000000085
 11
-138.87
 21
42.50000000000001
 31
0.0000000000000085
  0
LINE
  5
458
330
1F
100
AcDbEntity
  8
0
370
    40
100
AcDbLine
 10
-138.87
 20
42.50000000000001
 30
0.0000000000000085
 11
0.0000000000000026
 21
42.5
 31
0.0
  0
LINE
  5
471
102
{ACAD_REACTORS
330
958
102
}
330
1F
100
AcDbEntity
  8
0
370
    40
100
AcDbLine
 10
-138.87
 20
0.000000000000017
 30
0.0000000000000085
 11
-215.87
 21
0.000000000000019
 31
0.0000000000000132
  0
LINE
  5
472
330
1F
100
AcDbEntity
  8
0
370
    40
100
AcDbLine
 10
-217.99
 20
1.250000000000029
 30
0.0000000000000133
 11
-217.99
 21
41.25000000000002
 31
0.0000000000000133
  0
LINE
  5
473
102
{ACAD_REACTORS
330
958
102
}
330
1F
100
AcDbEntity
  8
0
370
    40
100
AcDbLine
 10
-215.87
 20
42.50000000000003
 30
0.0000000000000132
 11
-138.87
 21
42.50000000000001
 31
0.0000000000000085
  0
LINE
  5
493
330
1F
100
AcDbEntity
  8
0
100
AcDbLine
 10
-213.75
 20
1.250000000000022
 30
0.0000000000000131
 11
0.0000000000000001
 21
1.250000000000013
 31
0.0
  0
LINE
  5
494
330
1F
100
AcDbEntity
  8
0
100
AcDbLine
 10
-212.6
 20
1.250000000000012
 30
0.000000000000013
 11
-212.6
 21
41.25000000000004
 31
0.000000000000013
  0
LINE
  5
495
330
1F
100
AcDbEntity
  8
0
100
AcDbLine
 10
-213.75
 20
41.25000000000003
 30
0.0000000000000131
 11
0.0000000000000025
 21
41.25000000000001
 31
0.0
  0
LINE
  5
4E9
330
1F
100
AcDbEntity
  8
0
370
    40
100
AcDbLine
 10
-141.9
 20
3.750000000000015
 30
0.0000000000000087
 11
-141.9
 21
38.75000000000002
 31
0.0000000000000087
  0
LINE
  5
507
330
1F
100
AcDbEntity
  8
0
370
    40
100
AcDbLine
 10
-210.48
 20
3.750000000000027
 30
0.0000000000000129
 11
-210.48
 21
38.75000000000003
 31
0.0000000000000129
  0
LINE
  5
508
330
1F
100
AcDbEntity
  8
0
370
    40
100
AcDbLine
 10
-210.48
 20
38.75000000000003
 30
0.0000000000000129
 11
-141.9
 21
38.75000000000002
 31
0.0000000000000087
  0
LINE
  5
509
330
1F
100
AcDbEntity
  8
0
370
    40
100
AcDbLine
 10
-210.48
 20
3.750000000000027
 30
0.0000000000000129
 11
-141.9
 21
3.750000000000015
 31
0.0000000000000087
  0
ARC
  5
532
330
1F
100
AcDbEntity
  8
0
370
    40
100
AcDbCircle
 10
12.70701425284333
 20
29.77579144829401
 30
0.0
 40
2.257384695342046
100
AcDbArc
 50
130.198934867122
 51
167.8735520687267
  0
LINE
  5
533
330
1F
100
AcDbEntity
  8
0
100
AcDbLine
 10
12.00000000000002
 20
12.25000000000006
 30
-0.0000000000000007
 11
10.50000000000002
 21
30.25
 31
-0.0000000000000006
  0
LINE
  5
534
330
1F
100
AcDbEntity
  8
0
100
AcDbLine
 10
10.50000000000002
 20
12.25000000000002
 30
-0.0000000000000006
 11
9.000000000000026
 21
30.25
 31
-0.0000000000000006
  0
LINE
  5
535
330
1F
100
AcDbEntity
  8
0
100
AcDbLine
 10
9.000000000000031
 20
12.25000000000005
 30
-0.0000000000000006
 11
7.50000000000004
 21
30.25000000000003
 31
-0.0000000000000005
  0
LINE
  5
536
330
1F
100
AcDbEntity
  8
0
100
AcDbLine
 10
7.500000000000011
 20
12.25000000000003
 30
-0.0000000000000005
 11
6.000000000000026
 21
30.25000000000003
 31
-0.0000000000000004
  0
LINE
  5
537
330
1F
100
AcDbEntity
  8
0
100
AcDbLine
 10
6.000000000000025
 20
12.25000000000005
 30
-0.0000000000000004
 11
4.500000000000019
 21
30.25
 31
-0.0000000000000003
  0
LINE
  5
538
330
1F
100
AcDbEntity
  8
0
100
AcDbLine
 10
4.500000000000025
 20
12.25000000000002
 30
-0.0000000000000003
 11
3.000000000000019
 21
30.24999999999997
 31
-0.0000000000000002
  0
ARC
  5
539
330
1F
100
AcDbEntity
  8
0
370
    40
100
AcDbCircle
 10
5.207014252843312
 20
12.72420855170594
 30
0.0
 40
2.257384695342046
100
AcDbArc
 50
192.1264479312707
 51
229.8010651328753
  0
LINE
  5
53A
330
1F
100
AcDbEntity
  8
0
370
    40
100
AcDbLine
 10
12.00000000000001
 20
30.25000000000001
 30
-0.0000000000000007
 11
12.00000000000002
 21
12.25000000000006
 31
-0.0000000000000007
  0
ARC
  5
53B
330
1F
100
AcDbEntity
  8
0
370
    40
100
AcDbCircle
 10
9.792985747156725
 20
29.77579144829408
 30
0.0
 40
2.257384695342046
100
AcDbArc
 50
12.1264479312707
 51
49.80106513287529
  0
ARC
  5
53C
330
1F
100
AcDbEntity
  8
0
370
    40
100
AcDbCircle
 10
2.292985747156731
 20
12.72420855170609
 30
0.0
 40
2.257384695342046
100
AcDbArc
 50
310.198934867122
 51
347.8735520687266
  0
ARC
  5
53D
330
1F
100
AcDbEntity
  8
0
370
    40
100
AcDbCircle
 10
11.20701425284334
 20
12.72420855170599
 30
0.0
 40
2.257384695342046
100
AcDbArc
 50
192.1264479312707
 51
229.8010651328753
  0
ARC
  5
53E
330
1F
100
AcDbEntity
  8
0
370
    40
100
AcDbCircle
 10
6.792985747156738
 20
12.72420855170606
 30
0.0
 40
2.257384695342046
100
AcDbArc
 50
310.198934867122
 51
347.8735520687266
  0
ARC
  5
53F
330
1F
100
AcDbEntity
  8
0
370
    40
100
AcDbCircle
 10
12.70701425284331
 20
12.72420855170591
 30
0.0
 40
2.257384695342046
100
AcDbArc
 50
192.1264479312707
 51
229.8010651328753
  0
ARC
  5
540
330
1F
100
AcDbEntity
  8
0
370
    40
100
AcDbCircle
 10
9.792985747156702
 20
12.72420855170601
 30
0.0
 40
2.257384695342046
100
AcDbArc
 50
310.198934867122
 51
347.8735520687266
  0
ARC
  5
541
330
1F
100
AcDbEntity
  8
0
370
    40
100
AcDbCircle
 10
8.292985747156723
 20
12.72420855170603
 30
0.0
 40
2.257384695342046
100
AcDbArc
 50
310.198934867122
 51
347.8735520687266
  0
ARC
  5
542
330
1F
100
AcDbEntity
  8
0
370
    40
100
AcDbCircle
 10
8.207014252843304
 20
12.72420855170594
 30
0.0
 40
2.257384695342046
100
AcDbArc
 50
192.1264479312707
 51
229.8010651328753
  0
ARC
  5
543
330
1F
100
AcDbEntity
  8
0
370
    40
100
AcDbCircle
 10
5.292985747156689
 20
12.72420855170598
 30
0.0
 40
2.257384695342046
100
AcDbArc
 50
310.198934867122
 51
347.8735520687266
  0
ARC
  5
544
330
1F
100
AcDbEntity
  8
0
370
    40
100
AcDbCircle
 10
9.70701425284334
 20
12.72420855170596
 30
0.0
 40
2.257384695342046
100
AcDbArc
 50
192.1264479312707
 51
229.8010651328753
  0
ARC
  5
545
330
1F
100
AcDbEntity
  8
0
370
    40
100
AcDbCircle
 10
6.707014252843333
 20
12.7242085517059
 30
0.0
 40
2.257384695342046
100
AcDbArc
 50
192.1264479312707
 51
229.8010651328753
  0
ARC
  5
546
330
1F
100
AcDbEntity
  8
0
370
    40
100
AcDbCircle
 10
3.792985747156738
 20
12.724208551706
 30
0.0
 40
2.257384695342046
100
AcDbArc
 50
310.198934867122
 51
347.8735520687266
  0
LINE
  5
547
330
1F
100
AcDbEntity
  8
0
100
AcDbLine
 10
3.000000000000011
 20
12.25000000000005
 30
-0.0000000000000002
 11
1.500000000000012
 21
30.25000000000003
 31
-0.0000000000000001
  0
LINE
  5
548
330
1F
100
AcDbEntity
  8
0
370
    40
100
AcDbLine
 10
0.0000000000000054
 20
30.25
 30
0.0
 11
1.500000000000062
 21
30.25000000000001
 31
-0.0000000000000001
  0
ARC
  5
549
330
1F
100
AcDbEntity
  8
0
370
    40
100
AcDbCircle
 10
3.792985747156732
 20
29.77579144829407
 30
0.0
 40
2.257384695342046
100
AcDbArc
 50
12.1264479312707
 51
49.80106513287529
  0
ARC
  5
54A
330
1F
100
AcDbEntity
  8
0
370
    40
100
AcDbCircle
 10
6.792985747156761
 20
29.77579144829416
 30
0.0
 40
2.257384695342046
100
AcDbArc
 50
12.1264479312707
 51
49.80106513287529
  0
ARC
  5
54B
330
1F
100
AcDbEntity
  8
0
370
    40
100
AcDbCircle
 10
11.20701425284335
 20
29.77579144829404
 30
0.0
 40
2.257384695342046
100
AcDbArc
 50
130.198934867122
 51
167.8735520687267
  0
ARC
  5
54C
330
1F
100
AcDbEntity
  8
0
370
    40
100
AcDbCircle
 10
8.292985747156746
 20
29.77579144829413
 30
0.0
 40
2.257384695342046
100
AcDbArc
 50
12.1264479312707
 51
49.80106513287529
  0
ARC
  5
54D
330
1F
100
AcDbEntity
  8
0
370
    40
100
AcDbCircle
 10
8.20701425284342
 20
29.77579144829413
 30
0.0
 40
2.257384695342046
100
AcDbArc
 50
130.198934867122
 51
167.8735520687267
  0
ARC
  5
54E
330
1F
100
AcDbEntity
  8
0
370
    40
100
AcDbCircle
 10
9.707014252843363
 20
29.77579144829406
 30
0.0
 40
2.257384695342046
100
AcDbArc
 50
130.198934867122
 51
167.8735520687267
  0
ARC
  5
54F
330
1F
100
AcDbEntity
  8
0
370
    40
100
AcDbCircle
 10
5.292985747156825
 20
29.7757914482942
 30
0.0
 40
2.257384695342046
100
AcDbArc
 50
12.1264479312707
 51
49.80106513287529
  0
ARC
  5
550
330
1F
100
AcDbEntity
  8
0
370
    40
100
AcDbCircle
 10
5.207014252843334
 20
29.77579144829404
 30
0.0
 40
2.257384695342046
100
AcDbArc
 50
130.198934867122
 51
167.8735520687267
  0
ARC
  5
551
330
1F
100
AcDbEntity
  8
0
370
    40
100
AcDbCircle
 10
2.292985747156754
 20
29.77579144829413
 30
0.0
 40
2.257384695342046
100
AcDbArc
 50
12.1264479312707
 51
49.80106513287529
  0
ARC
  5
552
330
1F
100
AcDbEntity
  8
0
370
    40
100
AcDbCircle
 10
0.7929857471567115
 20
29.77579144829405
 30
0.0
 40
2.257384695342046
100
AcDbArc
 50
12.1264479312707
 51
49.80106513287529
  0
ARC
  5
553
330
1F
100
AcDbEntity
  8
0
370
    40
100
AcDbCircle
 10
6.707014252843327
 20
29.77579144829401
 30
0.0
 40
2.257384695342046
100
AcDbArc
 50
130.198934867122
 51
167.8735520687267
  0
ARC
  5
554
330
1F
100
AcDbEntity
  8
0
370
    40
100
AcDbCircle
 10
3.707014252843306
 20
29.77579144829399
 30
0.0
 40
2.257384695342046
100
AcDbArc
 50
130.198934867122
 51
167.8735520687267
  0
LINE
  5
555
330
1F
100
AcDbEntity
  8
0
370
    40
100
AcDbLine
 10
-0.0000000000000028
 20
12.24999999999999
 30
0.0
 11
3.000000000000011
 21
12.25000000000005
 31
-0.0000000000000002
  0
LINE
  5
5A5
330
1F
100
AcDbEntity
  8
0
370
    40
100
AcDbLine
 10
-213.75
 20
1.250000000000022
 30
0.0000000000000131
 11
-213.75
 21
41.25000000000003
 31
0.0000000000000131
  0
LWPOLYLINE
  5
5DE
330
1F
100
AcDbEntity
  8
0
100
AcDbPolyline
 90
        4
 70
     1
 43
0.0
 10
-198.309944784844
 20
19.35413503062061
 10
-198.309944784844
 20
23.1541350306206
 10
-194.639944784844
 20
23.1541350306206
 10
-194.639944784844
 20
19.35413503062061
  0
LWPOLYLINE
  5
617
330
1F
100
AcDbEntity
  8
0
370
    40
100
AcDbPolyline
 90
        4
 70
     1
 43
0.0
 10
-197.789944784844
 20
19.7541350306206
 10
-197.789944784844
 20
22.75413503062061
 10
-194.889944784844
 20
22.75413503062061
 10
-194.889944784844
 20
19.7541350306206
  0
CIRCLE
  5
668
330
1F
100
AcDbEntity
  8
0
370
    40
100
AcDbCircle
 10
-196.339944784844
 20
21.25413503062061
 30
0.0
 40
0.5
  0
CIRCLE
  5
6A8
330
1F
100
AcDbEntity
  8
0
370
    40
100
AcDbCircle
 10
-196.339944784844
 20
27.25413503062061
 30
0.0
 40
0.5
  0
LWPOLYLINE
  5
6A9
330
1F
100
AcDbEntity
  8
0
370
    40
100
AcDbPolyline
 90
        4
 70
     1
 43
0.0
 10
-197.789944784844
 20
25.75413503062061
 10
-197.789944784844
 20
28.75413503062061
 10
-194.889944784844
 20
28.75413503062061
 10
-194.889944784844
 20
25.75413503062061
  0
LWPOLYLINE
  5
6AA
330
1F
100
AcDbEntity
  8
0
100
AcDbPolyline
 90
        4
 70
     1
 43
0.0
 10
-198.309944784844
 20
25.35413503062061
 10
-198.309944784844
 20
29.1541350306206
 10
-194.639944784844
 20
29.1541350306206
 10
-194.639944784844
 20
25.35413503062061
  0
CIRCLE
  5
6AB
330
1F
100
AcDbEntity
  8
0
370
    40
100
AcDbCircle
 10
-196.339944784844
 20
33.25413503062061
 30
0.0
 40
0.5
  0
LWPOLYLINE
  5
6AC
330
1F
100
AcDbEntity
  8
0
370
    40
100
AcDbPolyline
 90
        4
 70
     1
 43
0.0
 10
-197.789944784844
 20
31.75413503062061
 10
-197.789944784844
 20
34.75413503062061
 10
-194.889944784844
 20
34.75413503062061
 10
-194.889944784844
 20
31.75413503062061
  0
LWPOLYLINE
  5
6AD
330
1F
100
AcDbEntity
  8
0
100
AcDbPolyline
 90
        4
 70
     1
 43
0.0
 10
-198.309944784844
 20
31.35413503062061
 10
-198.309944784844
 20
35.15413503062061
 10
-194.639944784844
 20
35.15413503062061
 10
-194.639944784844
 20
31.35413503062061
  0
CIRCLE
  5
6AE
330
1F
100
AcDbEntity
  8
0
370
    40
100
AcDbCircle
 10
-196.339944784844
 20
15.2541350306206
 30
0.0
 40
0.5
  0
LWPOLYLINE
  5
6AF
330
1F
100
AcDbEntity
  8
0
370
    40
100
AcDbPolyline
 90
        4
 70
     1
 43
0.0
 10
-197.789944784844
 20
13.75413503062061
 10
-197.789944784844
 20
16.7541350306206
 10
-194.889944784844
 20
16.7541350306206
 10
-194.889944784844
 20
13.75413503062061
  0
LWPOLYLINE
  5
6B0
330
1F
100
AcDbEntity
  8
0
100
AcDbPolyline
 90
        4
 70
     1
 43
0.0
 10
-198.309944784844
 20
13.35413503062061
 10
-198.309944784844
 20
17.1541350306206
 10
-194.639944784844
 20
17.1541350306206
 10
-194.639944784844
 20
13.35413503062061
  0
CIRCLE
  5
6B1
330
1F
100
AcDbEntity
  8
0
370
    40
100
AcDbCircle
 10
-196.339944784844
 20
9.254135030620608
 30
0.0
 40
0.5
  0
LWPOLYLINE
  5
6B2
330
1F
100
AcDbEntity
  8
0
370
    40
100
AcDbPolyline
 90
        4
 70
     1
 43
0.0
 10
-197.789944784844
 20
7.754135030620608
 10
-197.789944784844
 20
10.75413503062061
 10
-194.889944784844
 20
10.75413503062061
 10
-194.889944784844
 20
7.754135030620607
  0
LWPOLYLINE
  5
6B3
330
1F
100
AcDbEntity
  8
0
100
AcDbPolyline
 90
        4
 70
     1
 43
0.0
 10
-198.309944784844
 20
7.354135030620609
 10
-198.309944784844
 20
11.1541350306206
 10
-194.639944784844
 20
11.1541350306206
 10
-194.639944784844
 20
7.354135030620608
  0
LWPOLYLINE
  5
6D0
330
1F
100
AcDbEntity
  8
0
100
AcDbPolyline
 90
        4
 70
     1
 43
0.0
 10
-192.509944784844
 20
13.35413503062061
 10
-192.509944784844
 20
17.1541350306206
 10
-188.839944784844
 20
17.1541350306206
 10
-188.839944784844
 20
13.35413503062061
  0
LWPOLYLINE
  5
6D1
330
1F
100
AcDbEntity
  8
0
370
    40
100
AcDbPolyline
 90
        4
 70
     1
 43
0.0
 10
-191.989944784844
 20
13.75413503062061
 10
-191.989944784844
 20
16.7541350306206
 10
-189.089944784844
 20
16.7541350306206
 10
-189.089944784844
 20
13.75413503062061
  0
CIRCLE
  5
6D2
330
1F
100
AcDbEntity
  8
0
370
    40
100
AcDbCircle
 10
-190.539944784844
 20
15.2541350306206
 30
0.0
 40
0.5
  0
LWPOLYLINE
  5
6D3
330
1F
100
AcDbEntity
  8
0
100
AcDbPolyline
 90
        4
 70
     1
 43
0.0
 10
-192.509944784844
 20
7.354135030620608
 10
-192.509944784844
 20
11.1541350306206
 10
-188.839944784844
 20
11.1541350306206
 10
-188.839944784844
 20
7.354135030620608
  0
LWPOLYLINE
  5
6D4
330
1F
100
AcDbEntity
  8
0
370
    40
100
AcDbPolyline
 90
        4
 70
     1
 43
0.0
 10
-191.989944784844
 20
7.754135030620607
 10
-191.989944784844
 20
10.75413503062061
 10
-189.089944784844
 20
10.75413503062061
 10
-189.089944784844
 20
7.754135030620607
  0
CIRCLE
  5
6D5
330
1F
100
AcDbEntity
  8
0
370
    40
100
AcDbCircle
 10
-190.539944784844
 20
9.254135030620608
 30
0.0
 40
0.5
  0
LWPOLYLINE
  5
6D6
330
1F
100
AcDbEntity
  8
0
100
AcDbPolyline
 90
        4
 70
     1
 43
0.0
 10
-192.509944784844
 20
31.35413503062061
 10
-192.509944784844
 20
35.15413503062061
 10
-188.839944784844
 20
35.15413503062061
 10
-188.839944784844
 20
31.35413503062061
  0
LWPOLYLINE
  5
6D7
330
1F
100
AcDbEntity
  8
0
370
    40
100
AcDbPolyline
 90
        4
 70
     1
 43
0.0
 10
-191.989944784844
 20
31.75413503062061
 10
-191.989944784844
 20
34.75413503062061
 10
-189.089944784844
 20
34.75413503062061
 10
-189.089944784844
 20
31.75413503062061
  0
CIRCLE
  5
6D8
330
1F
100
AcDbEntity
  8
0
370
    40
100
AcDbCircle
 10
-190.539944784844
 20
33.25413503062061
 30
0.0
 40
0.5
  0
LWPOLYLINE
  5
6D9
330
1F
100
AcDbEntity
  8
0
100
AcDbPolyline
 90
        4
 70
     1
 43
0.0
 10
-192.509944784844
 20
25.35413503062061
 10
-192.509944784844
 20
29.1541350306206
 10
-188.839944784844
 20
29.1541350306206
 10
-188.839944784844
 20
25.35413503062061
  0
LWPOLYLINE
  5
6DA
330
1F
100
AcDbEntity
  8
0
370
    40
100
AcDbPolyline
 90
        4
 70
     1
 43
0.0
 10
-191.989944784844
 20
25.75413503062061
 10
-191.989944784844
 20
28.75413503062061
 10
-189.089944784844
 20
28.75413503062061
 10
-189.089944784844
 20
25.75413503062061
  0
CIRCLE
  5
6DB
330
1F
100
AcDbEntity
  8
0
370
    40
100
AcDbCircle
 10
-190.539944784844
 20
27.25413503062061
 30
0.0
 40
0.5
  0
CIRCLE
  5
6DC
330
1F
100
AcDbEntity
  8
0
370
    40
100
AcDbCircle
 10
-190.539944784844
 20
21.25413503062061
 30
0.0
 40
0.5
  0
LWPOLYLINE
  5
6DD
330
1F
100
AcDbEntity
  8
0
370
    40
100
AcDbPolyline
 90
        4
 70
     1
 43
0.0
 10
-191.989944784844
 20
19.7541350306206
 10
-191.989944784844
 20
22.75413503062061
 10
-189.089944784844
 20
22.75413503062061
 10
-189.089944784844
 20
19.7541350306206
  0
LWPOLYLINE
  5
6DE
330
1F
100
AcDbEntity
  8
0
100
AcDbPolyline
 90
        4
 70
     1
 43
0.0
 10
-192.509944784844
 20
19.35413503062061
 10
-192.509944784844
 20
23.1541350306206
 10
-188.839944784844
 20
23.1541350306206
 10
-188.839944784844
 20
19.35413503062061
  0
LWPOLYLINE
  5
6DF
330
1F
100
AcDbEntity
  8
0
100
AcDbPolyline
 90
        4
 70
     1
 43
0.0
 10
-186.709944784844
 20
13.35413503062061
 10
-186.709944784844
 20
17.1541350306206
 10
-183.039944784844
 20
17.1541350306206
 10
-183.039944784844
 20
13.35413503062061
  0
LWPOLYLINE
  5
6E0
330
1F
100
AcDbEntity
  8
0
370
    40
100
AcDbPolyline
 90
        4
 70
     1
 43
0.0
 10
-186.189944784844
 20
13.7541350306206
 10
-186.189944784844
 20
16.7541350306206
 10
-183.289944784844
 20
16.7541350306206
 10
-183.289944784844
 20
13.7541350306206
  0
CIRCLE
  5
6E1
330
1F
100
AcDbEntity
  8
0
370
    40
100
AcDbCircle
 10
-184.739944784844
 20
15.2541350306206
 30
0.0
 40
0.5
  0
LWPOLYLINE
  5
6E2
330
1F
100
AcDbEntity
  8
0
100
AcDbPolyline
 90
        4
 70
     1
 43
0.0
 10
-186.709944784844
 20
7.354135030620608
 10
-186.709944784844
 20
11.1541350306206
 10
-183.039944784844
 20
11.1541350306206
 10
-183.039944784844
 20
7.354135030620608
  0
LWPOLYLINE
  5
6E3
330
1F
100
AcDbEntity
  8
0
370
    40
100
AcDbPolyline
 90
        4
 70
     1
 43
0.0
 10
-186.189944784844
 20
7.754135030620607
 10
-186.189944784844
 20
10.7541350306206
 10
-183.289944784844
 20
10.7541350306206
 10
-183.289944784844
 20
7.754135030620607
  0
CIRCLE
  5
6E4
330
1F
100
AcDbEntity
  8
0
370
    40
100
AcDbCircle
 10
-184.739944784844
 20
9.254135030620606
 30
0.0
 40
0.5
  0
LWPOLYLINE
  5
6E5
330
1F
100
AcDbEntity
  8
0
100
AcDbPolyline
 90
        4
 70
     1
 43
0.0
 10
-186.709944784844
 20
31.35413503062061
 10
-186.709944784844
 20
35.15413503062061
 10
-183.039944784844
 20
35.15413503062061
 10
-183.039944784844
 20
31.35413503062061
  0
LWPOLYLINE
  5
6E6
330
1F
100
AcDbEntity
  8
0
370
    40
100
AcDbPolyline
 90
        4
 70
     1
 43
0.0
 10
-186.189944784844
 20
31.75413503062061
 10
-186.189944784844
 20
34.75413503062061
 10
-183.289944784844
 20
34.75413503062061
 10
-183.289944784844
 20
31.75413503062061
  0
CIRCLE
  5
6E7
330
1F
100
AcDbEntity
  8
0
370
    40
100
AcDbCircle
 10
-184.739944784844
 20
33.25413503062061
 30
0.0
 40
0.5
  0
LWPOLYLINE
  5
6E8
330
1F
100
AcDbEntity
  8
0
100
AcDbPolyline
 90
        4
 70
     1
 43
0.0
 10
-186.709944784844
 20
25.35413503062061
 10
-186.709944784844
 20
29.1541350306206
 10
-183.039944784844
 20
29.1541350306206
 10
-183.039944784844
 20
25.35413503062061
  0
LWPOLYLINE
  5
6E9
330
1F
100
AcDbEntity
  8
0
370
    40
100
AcDbPolyline
 90
        4
 70
     1
 43
0.0
 10
-186.189944784844
 20
25.75413503062061
 10
-186.189944784844
 20
28.75413503062061
 10
-183.289944784844
 20
28.75413503062061
 10
-183.289944784844
 20
25.75413503062061
  0
CIRCLE
  5
6EA
330
1F
100
AcDbEntity
  8
0
370
    40
100
AcDbCircle
 10
-184.739944784844
 20
27.25413503062061
 30
0.0
 40
0.5
  0
CIRCLE
  5
6EB
330
1F
100
AcDbEntity
  8
0
370
    40
100
AcDbCircle
 10
-184.739944784844
 20
21.25413503062061
 30
0.0
 40
0.5
  0
LWPOLYLINE
  5
6EC
330
1F
100
AcDbEntity
  8
0
370
    40
100
AcDbPolyline
 90
        4
 70
     1
 43
0.0
 10
-186.189944784844
 20
19.7541350306206
 10
-186.189944784844
 20
22.75413503062061
 10
-183.289944784844
 20
22.75413503062061
 10
-183.289944784844
 20
19.7541350306206
  0
LWPOLYLINE
  5
6ED
330
1F
100
AcDbEntity
  8
0
100
AcDbPolyline
 90
        4
 70
     1
 43
0.0
 10
-186.709944784844
 20
19.35413503062061
 10
-186.709944784844
 20
23.1541350306206
 10
-183.039944784844
 20
23.1541350306206
 10
-183.039944784844
 20
19.35413503062061
  0
LWPOLYLINE
  5
6EE
330
1F
100
AcDbEntity
  8
0
100
AcDbPolyline
 90
        4
 70
     1
 43
0.0
 10
-180.909944784844
 20
13.35413503062061
 10
-180.909944784844
 20
17.1541350306206
 10
-177.239944784844
 20
17.1541350306206
 10
-177.239944784844
 20
13.35413503062061
  0
LWPOLYLINE
  5
6EF
330
1F
100
AcDbEntity
  8
0
370
    40
100
AcDbPolyline
 90
        4
 70
     1
 43
0.0
 10
-180.389944784844
 20
13.7541350306206
 10
-180.389944784844
 20
16.7541350306206
 10
-177.489944784844
 20
16.7541350306206
 10
-177.489944784844
 20
13.7541350306206
  0
CIRCLE
  5
6F0
330
1F
100
AcDbEntity
  8
0
370
    40
100
AcDbCircle
 10
-178.939944784844
 20
15.2541350306206
 30
0.0
 40
0.5
  0
LWPOLYLINE
  5
6F1
330
1F
100
AcDbEntity
  8
0
100
AcDbPolyline
 90
        4
 70
     1
 43
0.0
 10
-180.909944784844
 20
7.354135030620607
 10
-180.909944784844
 20
11.1541350306206
 10
-177.239944784844
 20
11.1541350306206
 10
-177.239944784844
 20
7.354135030620607
  0
LWPOLYLINE
  5
6F2
330
1F
100
AcDbEntity
  8
0
370
    40
100
AcDbPolyline
 90
        4
 70
     1
 43
0.0
 10
-180.389944784844
 20
7.754135030620606
 10
-180.389944784844
 20
10.7541350306206
 10
-177.489944784844
 20
10.7541350306206
 10
-177.489944784844
 20
7.754135030620606
  0
CIRCLE
  5
6F3
330
1F
100
AcDbEntity
  8
0
370
    40
100
AcDbCircle
 10
-178.939944784844
 20
9.254135030620606
 30
0.0
 40
0.5
  0
LWPOLYLINE
  5
6F4
330
1F
100
AcDbEntity
  8
0
100
AcDbPolyline
 90
        4
 70
     1
 43
0.0
 10
-180.909944784844
 20
31.35413503062061
 10
-180.909944784844
 20
35.15413503062061
 10
-177.239944784844
 20
35.15413503062061
 10
-177.239944784844
 20
31.35413503062061
  0
LWPOLYLINE
  5
6F5
330
1F
100
AcDbEntity
  8
0
370
    40
100
AcDbPolyline
 90
        4
 70
     1
 43
0.0
 10
-180.389944784844
 20
31.75413503062061
 10
-180.389944784844
 20
34.75413503062061
 10
-177.489944784844
 20
34.75413503062061
 10
-177.489944784844
 20
31.75413503062061
  0
CIRCLE
  5
6F6
330
1F
100
AcDbEntity
  8
0
370
    40
100
AcDbCircle
 10
-178.939944784844
 20
33.25413503062061
 30
0.0
 40
0.5
  0
LWPOLYLINE
  5
6F7
330
1F
100
AcDbEntity
  8
0
100
AcDbPolyline
 90
        4
 70
     1
 43
0.0
 10
-180.909944784844
 20
25.35413503062061
 10
-180.909944784844
 20
29.1541350306206
 10
-177.239944784844
 20
29.1541350306206
 10
-177.239944784844
 20
25.35413503062061
  0
LWPOLYLINE
  5
6F8
330
1F
100
AcDbEntity
  8
0
370
    40
100
AcDbPolyline
 90
        4
 70
     1
 43
0.0
 10
-180.389944784844
 20
25.75413503062061
 10
-180.389944784844
 20
28.75413503062061
 10
-177.489944784844
 20
28.75413503062061
 10
-177.489944784844
 20
25.75413503062061
  0
CIRCLE
  5
6F9
330
1F
100
AcDbEntity
  8
0
370
    40
100
AcDbCircle
 10
-178.939944784844
 20
27.25413503062061
 30
0.0
 40
0.5
  0
CIRCLE
  5
6FA
330
1F
100
AcDbEntity
  8
0
370
    40
100
AcDbCircle
 10
-178.939944784844
 20
21.25413503062061
 30
0.0
 40
0.5
  0
LWPOLYLINE
  5
6FB
330
1F
100
AcDbEntity
  8
0
370
    40
100
AcDbPolyline
 90
        4
 70
     1
 43
0.0
 10
-180.389944784844
 20
19.7541350306206
 10
-180.389944784844
 20
22.75413503062061
 10
-177.489944784844
 20
22.75413503062061
 10
-177.489944784844
 20
19.7541350306206
  0
LWPOLYLINE
  5
6FC
330
1F
100
AcDbEntity
  8
0
100
AcDbPolyline
 90
        4
 70
     1
 43
0.0
 10
-180.909944784844
 20
19.35413503062061
 10
-180.909944784844
 20
23.1541350306206
 10
-177.239944784844
 20
23.1541350306206
 10
-177.239944784844
 20
19.35413503062061
  0
LWPOLYLINE
  5
6FD
330
1F
100
AcDbEntity
  8
0
100
AcDbPolyline
 90
        4
 70
     1
 43
0.0
 10
-175.109944784844
 20
13.35413503062061
 10
-175.109944784844
 20
17.1541350306206
 10
-171.439944784844
 20
17.1541350306206
 10
-171.439944784844
 20
13.35413503062061
  0
LWPOLYLINE
  5
6FE
330
1F
100
AcDbEntity
  8
0
370
    40
100
AcDbPolyline
 90
        4
 70
     1
 43
0.0
 10
-174.589944784844
 20
13.7541350306206
 10
-174.589944784844
 20
16.7541350306206
 10
-171.689944784844
 20
16.7541350306206
 10
-171.689944784844
 20
13.7541350306206
  0
CIRCLE
  5
6FF
330
1F
100
AcDbEntity
  8
0
370
    40
100
AcDbCircle
 10
-173.139944784844
 20
15.2541350306206
 30
0.0
 40
0.5
  0
LWPOLYLINE
  5
700
330
1F
100
AcDbEntity
  8
0
100
AcDbPolyline
 90
        4
 70
     1
 43
0.0
 10
-175.109944784844
 20
7.354135030620607
 10
-175.109944784844
 20
11.1541350306206
 10
-171.439944784844
 20
11.1541350306206
 10
-171.439944784844
 20
7.354135030620607
  0
LWPOLYLINE
  5
701
330
1F
100
AcDbEntity
  8
0
370
    40
100
AcDbPolyline
 90
        4
 70
     1
 43
0.0
 10
-174.589944784844
 20
7.754135030620606
 10
-174.589944784844
 20
10.7541350306206
 10
-171.689944784844
 20
10.7541350306206
 10
-171.689944784844
 20
7.754135030620606
  0
CIRCLE
  5
702
330
1F
100
AcDbEntity
  8
0
370
    40
100
AcDbCircle
 10
-173.139944784844
 20
9.254135030620606
 30
0.0
 40
0.5
  0
LWPOLYLINE
  5
703
330
1F
100
AcDbEntity
  8
0
100
AcDbPolyline
 90
        4
 70
     1
 43
0.0
 10
-175.109944784844
 20
31.35413503062061
 10
-175.109944784844
 20
35.15413503062061
 10
-171.439944784844
 20
35.1541350306206
 10
-171.439944784844
 20
31.35413503062061
  0
LWPOLYLINE
  5
704
330
1F
100
AcDbEntity
  8
0
370
    40
100
AcDbPolyline
 90
        4
 70
     1
 43
0.0
 10
-174.589944784844
 20
31.75413503062061
 10
-174.589944784844
 20
34.75413503062061
 10
-171.689944784844
 20
34.7541350306206
 10
-171.689944784844
 20
31.75413503062061
  0
CIRCLE
  5
705
330
1F
100
AcDbEntity
  8
0
370
    40
100
AcDbCircle
 10
-173.139944784844
 20
33.25413503062061
 30
0.0
 40
0.5
  0
LWPOLYLINE
  5
706
330
1F
100
AcDbEntity
  8
0
100
AcDbPolyline
 90
        4
 70
     1
 43
0.0
 10
-175.109944784844
 20
25.35413503062061
 10
-175.109944784844
 20
29.1541350306206
 10
-171.439944784844
 20
29.1541350306206
 10
-171.439944784844
 20
25.35413503062061
  0
LWPOLYLINE
  5
707
330
1F
100
AcDbEntity
  8
0
370
    40
100
AcDbPolyline
 90
        4
 70
     1
 43
0.0
 10
-174.589944784844
 20
25.75413503062061
 10
-174.589944784844
 20
28.75413503062061
 10
-171.689944784844
 20
28.75413503062061
 10
-171.689944784844
 20
25.75413503062061
  0
CIRCLE
  5
708
330
1F
100
AcDbEntity
  8
0
370
    40
100
AcDbCircle
 10
-173.139944784844
 20
27.25413503062061
 30
0.0
 40
0.5
  0
CIRCLE
  5
709
330
1F
100
AcDbEntity
  8
0
370
    40
100
AcDbCircle
 10
-173.139944784844
 20
21.25413503062061
 30
0.0
 40
0.5
  0
LWPOLYLINE
  5
70A
330
1F
100
AcDbEntity
  8
0
370
    40
100
AcDbPolyline
 90
        4
 70
     1
 43
0.0
 10
-174.589944784844
 20
19.7541350306206
 10
-174.589944784844
 20
22.75413503062061
 10
-171.689944784844
 20
22.75413503062061
 10
-171.689944784844
 20
19.7541350306206
  0
LWPOLYLINE
  5
70B
330
1F
100
AcDbEntity
  8
0
100
AcDbPolyline
 90
        4
 70
     1
 43
0.0
 10
-175.109944784844
 20
19.35413503062061
 10
-175.109944784844
 20
23.1541350306206
 10
-171.439944784844
 20
23.1541350306206
 10
-171.439944784844
 20
19.35413503062061
  0
LWPOLYLINE
  5
70C
330
1F
100
AcDbEntity
  8
0
100
AcDbPolyline
 90
        4
 70
     1
 43
0.0
 10
-169.309944784844
 20
13.35413503062061
 10
-169.309944784844
 20
17.1541350306206
 10
-165.639944784844
 20
17.1541350306206
 10
-165.639944784844
 20
13.35413503062061
  0
LWPOLYLINE
  5
70D
330
1F
100
AcDbEntity
  8
0
370
    40
100
AcDbPolyline
 90
        4
 70
     1
 43
0.0
 10
-168.789944784844
 20
13.7541350306206
 10
-168.789944784844
 20
16.7541350306206
 10
-165.889944784844
 20
16.7541350306206
 10
-165.889944784844
 20
13.7541350306206
  0
CIRCLE
  5
70E
330
1F
100
AcDbEntity
  8
0
370
    40
100
AcDbCircle
 10
-167.339944784844
 20
15.2541350306206
 30
0.0
 40
0.5
  0
LWPOLYLINE
  5
70F
330
1F
100
AcDbEntity
  8
0
100
AcDbPolyline
 90
        4
 70
     1
 43
0.0
 10
-169.309944784844
 20
7.354135030620607
 10
-169.309944784844
 20
11.1541350306206
 10
-165.639944784844
 20
11.1541350306206
 10
-165.639944784844
 20
7.354135030620606
  0
LWPOLYLINE
  5
710
330
1F
100
AcDbEntity
  8
0
370
    40
100
AcDbPolyline
 90
        4
 70
     1
 43
0.0
 10
-168.789944784844
 20
7.754135030620606
 10
-168.789944784844
 20
10.7541350306206
 10
-165.889944784844
 20
10.7541350306206
 10
-165.889944784844
 20
7.754135030620605
  0
CIRCLE
  5
711
330
1F
100
AcDbEntity
  8
0
370
    40
100
AcDbCircle
 10
-167.339944784844
 20
9.254135030620606
 30
0.0
 40
0.5
  0
LWPOLYLINE
  5
712
330
1F
100
AcDbEntity
  8
0
100
AcDbPolyline
 90
        4
 70
     1
 43
0.0
 10
-169.309944784844
 20
31.35413503062061
 10
-169.309944784844
 20
35.1541350306206
 10
-165.639944784844
 20
35.1541350306206
 10
-165.639944784844
 20
31.35413503062061
  0
LWPOLYLINE
  5
713
330
1F
100
AcDbEntity
  8
0
370
    40
100
AcDbPolyline
 90
        4
 70
     1
 43
0.0
 10
-168.789944784844
 20
31.75413503062061
 10
-168.789944784844
 20
34.7541350306206
 10
-165.889944784844
 20
34.7541350306206
 10
-165.889944784844
 20
31.75413503062061
  0
CIRCLE
  5
714
330
1F
100
AcDbEntity
  8
0
370
    40
100
AcDbCircle
 10
-167.339944784844
 20
33.25413503062061
 30
0.0
 40
0.5
  0
LWPOLYLINE
  5
715
330
1F
100
AcDbEntity
  8
0
100
AcDbPolyline
 90
        4
 70
     1
 43
0.0
 10
-169.309944784844
 20
25.35413503062061
 10
-169.309944784844
 20
29.1541350306206
 10
-165.639944784844
 20
29.1541350306206
 10
-165.639944784844
 20
25.35413503062061
  0
LWPOLYLINE
  5
716
330
1F
100
AcDbEntity
  8
0
370
    40
100
AcDbPolyline
 90
        4
 70
     1
 43
0.0
 10
-168.789944784844
 20
25.75413503062061
 10
-168.789944784844
 20
28.75413503062061
 10
-165.889944784844
 20
28.75413503062061
 10
-165.889944784844
 20
25.75413503062061
  0
CIRCLE
  5
717
330
1F
100
AcDbEntity
  8
0
370
    40
100
AcDbCircle
 10
-167.339944784844
 20
27.25413503062061
 30
0.0
 40
0.5
  0
CIRCLE
  5
718
330
1F
100
AcDbEntity
  8
0
370
    40
100
AcDbCircle
 10
-167.339944784844
 20
21.25413503062061
 30
0.0
 40
0.5
  0
LWPOLYLINE
  5
719
330
1F
100
AcDbEntity
  8
0
370
    40
100
AcDbPolyline
 90
        4
 70
     1
 43
0.0
 10
-168.789944784844
 20
19.7541350306206
 10
-168.789944784844
 20
22.75413503062061
 10
-165.889944784844
 20
22.75413503062061
 10
-165.889944784844
 20
19.7541350306206
  0
LWPOLYLINE
  5
71A
330
1F
100
AcDbEntity
  8
0
100
AcDbPolyline
 90
        4
 70
     1
 43
0.0
 10
-169.309944784844
 20
19.35413503062061
 10
-169.309944784844
 20
23.1541350306206
 10
-165.639944784844
 20
23.1541350306206
 10
-165.639944784844
 20
19.35413503062061
  0
LWPOLYLINE
  5
71B
330
1F
100
AcDbEntity
  8
0
100
AcDbPolyline
 90
        4
 70
     1
 43
0.0
 10
-163.509944784844
 20
13.35413503062061
 10
-163.509944784844
 20
17.1541350306206
 10
-159.839944784844
 20
17.1541350306206
 10
-159.839944784844
 20
13.35413503062061
  0
LWPOLYLINE
  5
71C
330
1F
100
AcDbEntity
  8
0
370
    40
100
AcDbPolyline
 90
        4
 70
     1
 43
0.0
 10
-162.989944784844
 20
13.7541350306206
 10
-162.989944784844
 20
16.7541350306206
 10
-160.089944784844
 20
16.7541350306206
 10
-160.089944784844
 20
13.7541350306206
  0
CIRCLE
  5
71D
330
1F
100
AcDbEntity
  8
0
370
    40
100
AcDbCircle
 10
-161.539944784844
 20
15.2541350306206
 30
0.0
 40
0.5
  0
LWPOLYLINE
  5
71E
330
1F
100
AcDbEntity
  8
0
100
AcDbPolyline
 90
        4
 70
     1
 43
0.0
 10
-163.509944784844
 20
7.354135030620606
 10
-163.509944784844
 20
11.1541350306206
 10
-159.839944784844
 20
11.1541350306206
 10
-159.839944784844
 20
7.354135030620606
  0
LWPOLYLINE
  5
71F
330
1F
100
AcDbEntity
  8
0
370
    40
100
AcDbPolyline
 90
        4
 70
     1
 43
0.0
 10
-162.989944784844
 20
7.754135030620605
 10
-162.989944784844
 20
10.7541350306206
 10
-160.089944784844
 20
10.7541350306206
 10
-160.089944784844
 20
7.754135030620605
  0
CIRCLE
  5
720
330
1F
100
AcDbEntity
  8
0
370
    40
100
AcDbCircle
 10
-161.539944784844
 20
9.254135030620606
 30
0.0
 40
0.5
  0
LWPOLYLINE
  5
721
330
1F
100
AcDbEntity
  8
0
100
AcDbPolyline
 90
        4
 70
     1
 43
0.0
 10
-163.509944784844
 20
31.35413503062061
 10
-163.509944784844
 20
35.1541350306206
 10
-159.839944784844
 20
35.1541350306206
 10
-159.839944784844
 20
31.35413503062061
  0
LWPOLYLINE
  5
722
330
1F
100
AcDbEntity
  8
0
370
    40
100
AcDbPolyline
 90
        4
 70
     1
 43
0.0
 10
-162.989944784844
 20
31.75413503062061
 10
-162.989944784844
 20
34.7541350306206
 10
-160.089944784844
 20
34.7541350306206
 10
-160.089944784844
 20
31.75413503062061
  0
CIRCLE
  5
723
330
1F
100
AcDbEntity
  8
0
370
    40
100
AcDbCircle
 10
-161.539944784844
 20
33.25413503062061
 30
0.0
 40
0.5
  0
LWPOLYLINE
  5
724
330
1F
100
AcDbEntity
  8
0
100
AcDbPolyline
 90
        4
 70
     1
 43
0.0
 10
-163.509944784844
 20
25.35413503062061
 10
-163.509944784844
 20
29.1541350306206
 10
-159.839944784844
 20
29.1541350306206
 10
-159.839944784844
 20
25.35413503062061
  0
LWPOLYLINE
  5
725
330
1F
100
AcDbEntity
  8
0
370
    40
100
AcDbPolyline
 90
        4
 70
     1
 43
0.0
 10
-162.989944784844
 20
25.75413503062061
 10
-162.989944784844
 20
28.75413503062061
 10
-160.089944784844
 20
28.75413503062061
 10
-160.089944784844
 20
25.75413503062061
  0
CIRCLE
  5
726
330
1F
100
AcDbEntity
  8
0
370
    40
100
AcDbCircle
 10
-161.539944784844
 20
27.25413503062061
 30
0.0
 40
0.5
  0
CIRCLE
  5
727
330
1F
100
AcDbEntity
  8
0
370
    40
100
AcDbCircle
 10
-161.539944784844
 20
21.25413503062061
 30
0.0
 40
0.5
  0
LWPOLYLINE
  5
728
330
1F
100
AcDbEntity
  8
0
370
    40
100
AcDbPolyline
 90
        4
 70
     1
 43
0.0
 10
-162.989944784844
 20
19.7541350306206
 10
-162.989944784844
 20
22.75413503062061
 10
-160.089944784844
 20
22.75413503062061
 10
-160.089944784844
 20
19.7541350306206
  0
LWPOLYLINE
  5
729
330
1F
100
AcDbEntity
  8
0
100
AcDbPolyline
 90
        4
 70
     1
 43
0.0
 10
-163.509944784844
 20
19.35413503062061
 10
-163.509944784844
 20
23.1541350306206
 10
-159.839944784844
 20
23.1541350306206
 10
-159.839944784844
 20
19.35413503062061
  0
LWPOLYLINE
  5
72A
330
1F
100
AcDbEntity
  8
0
100
AcDbPolyline
 90
        4
 70
     1
 43
0.0
 10
-157.709944784844
 20
13.3541350306206
 10
-157.709944784844
 20
17.1541350306206
 10
-154.039944784844
 20
17.1541350306206
 10
-154.039944784844
 20
13.3541350306206
  0
LWPOLYLINE
  5
72B
330
1F
100
AcDbEntity
  8
0
370
    40
100
AcDbPolyline
 90
        4
 70
     1
 43
0.0
 10
-157.189944784844
 20
13.7541350306206
 10
-157.189944784844
 20
16.7541350306206
 10
-154.289944784844
 20
16.7541350306206
 10
-154.289944784844
 20
13.7541350306206
  0
CIRCLE
  5
72C
330
1F
100
AcDbEntity
  8
0
370
    40
100
AcDbCircle
 10
-155.739944784844
 20
15.2541350306206
 30
0.0
 40
0.5
  0
LWPOLYLINE
  5
72D
330
1F
100
AcDbEntity
  8
0
100
AcDbPolyline
 90
        4
 70
     1
 43
0.0
 10
-157.709944784844
 20
7.354135030620606
 10
-157.709944784844
 20
11.1541350306206
 10
-154.039944784844
 20
11.1541350306206
 10
-154.039944784844
 20
7.354135030620606
  0
LWPOLYLINE
  5
72E
330
1F
100
AcDbEntity
  8
0
370
    40
100
AcDbPolyline
 90
        4
 70
     1
 43
0.0
 10
-157.189944784844
 20
7.754135030620605
 10
-157.189944784844
 20
10.7541350306206
 10
-154.289944784844
 20
10.7541350306206
 10
-154.289944784844
 20
7.754135030620605
  0
CIRCLE
  5
72F
330
1F
100
AcDbEntity
  8
0
370
    40
100
AcDbCircle
 10
-155.739944784844
 20
9.254135030620604
 30
0.0
 40
0.5
  0
LWPOLYLINE
  5
730
330
1F
100
AcDbEntity
  8
0
100
AcDbPolyline
 90
        4
 70
     1
 43
0.0
 10
-157.709944784844
 20
31.35413503062061
 10
-157.709944784844
 20
35.1541350306206
 10
-154.039944784844
 20
35.1541350306206
 10
-154.039944784844
 20
31.35413503062061
  0
LWPOLYLINE
  5
731
330
1F
100
AcDbEntity
  8
0
370
    40
100
AcDbPolyline
 90
        4
 70
     1
 43
0.0
 10
-157.189944784844
 20
31.75413503062061
 10
-157.189944784844
 20
34.7541350306206
 10
-154.289944784844
 20
34.7541350306206
 10
-154.289944784844
 20
31.75413503062061
  0
CIRCLE
  5
732
330
1F
100
AcDbEntity
  8
0
370
    40
100
AcDbCircle
 10
-155.739944784844
 20
33.25413503062061
 30
0.0
 40
0.5
  0
LWPOLYLINE
  5
733
330
1F
100
AcDbEntity
  8
0
100
AcDbPolyline
 90
        4
 70
     1
 43
0.0
 10
-157.709944784844
 20
25.35413503062061
 10
-157.709944784844
 20
29.1541350306206
 10
-154.039944784844
 20
29.1541350306206
 10
-154.039944784844
 20
25.35413503062061
  0
LWPOLYLINE
  5
734
330
1F
100
AcDbEntity
  8
0
370
    40
100
AcDbPolyline
 90
        4
 70
     1
 43
0.0
 10
-157.189944784844
 20
25.75413503062061
 10
-157.189944784844
 20
28.75413503062061
 10
-154.289944784844
 20
28.75413503062061
 10
-154.289944784844
 20
25.75413503062061
  0
CIRCLE
  5
735
330
1F
100
AcDbEntity
  8
0
370
    40
100
AcDbCircle
 10
-155.739944784844
 20
27.25413503062061
 30
0.0
 40
0.5
  0
CIRCLE
  5
736
330
1F
100
AcDbEntity
  8
0
370
    40
100
AcDbCircle
 10
-155.739944784844
 20
21.25413503062061
 30
0.0
 40
0.5
  0
LWPOLYLINE
  5
737
330
1F
100
AcDbEntity
  8
0
370
    40
100
AcDbPolyline
 90
        4
 70
     1
 43
0.0
 10
-157.189944784844
 20
19.7541350306206
 10
-157.189944784844
 20
22.75413503062061
 10
-154.289944784844
 20
22.75413503062061
 10
-154.289944784844
 20
19.7541350306206
  0
LWPOLYLINE
  5
738
330
1F
100
AcDbEntity
  8
0
100
AcDbPolyline
 90
        4
 70
     1
 43
0.0
 10
-157.709944784844
 20
19.35413503062061
 10
-157.709944784844
 20
23.1541350306206
 10
-154.039944784844
 20
23.1541350306206
 10
-154.039944784844
 20
19.35413503062061
  0
ARC
  5
739
330
1F
100
AcDbEntity
  8
0
370
    40
100
AcDbCircle
 10
-215.87
 20
2.422760000000017
 30
0.0
 40
2.422759999999998
100
AcDbArc
 50
208.9508719261226
 51
331.0491280738773
  0
ARC
  5
73B
330
1F
100
AcDbEntity
  8
0
370
    40
100
AcDbCircle
 10
-215.87
 20
40.07724000000004
 30
0.0
 40
2.422759999999998
100
AcDbArc
 50
28.95087192612271
 51
151.0491280738774
  0
ARC
  5
758
330
1F
100
AcDbEntity
  8
0
100
AcDbCircle
 10
-214.8668931350426
 20
1.509913203183197
 30
0.0
 40
2.281744805821219
100
AcDbArc
 50
318.5675777196177
 51
353.4592492659842
  0
ARC
  5
759
330
1F
100
AcDbEntity
  8
0
100
AcDbCircle
 10
-214.8668931350426
 20
40.99008679681686
 30
0.0
 40
2.281744805821219
100
AcDbArc
 50
6.540750734015832
 51
41.43242228038231
  0
LINE
  5
773
330
1F
100
AcDbEntity
  8
0
370
    40
100
AcDbLine
 10
0.0000000000000043
 20
69.5
 30
0.0
 11
0.0000000000000057
 21
92.5
 31
0.0
  0
LINE
  5
7A5
330
1F
100
AcDbEntity
  8
0
370
    40
100
AcDbLine
 10
0.0000000000000044
 20
72.0
 30
0.0
 11
-136.3686025458395
 21
72.00000000000001
 31
0.0
  0
LINE
  5
7A7
330
1F
100
AcDbEntity
  8
0
370
    40
100
AcDbLine
 10
-138.7383475024126
 20
90.00000000000005
 30
0.0
 11
0.0000000000000055
 21
89.99999999999998
 31
0.0
  0
LINE
  5
7C3
330
1F
100
AcDbEntity
  8
0
370
    40
100
AcDbLine
 10
-28.0
 20
72.0
 30
0.0
 11
0.0000000000000043
 21
69.5
 31
0.0
  0
LINE
  5
7C4
330
1F
100
AcDbEntity
  8
0
370
    40
100
AcDbLine
 10
-27.99999999999999
 20
89.99999999999998
 30
0.0
 11
0.0000000000000057
 21
92.5
 31
0.0
  0
LINE
  5
7C6
102
{ACAD_REACTORS
330
988
102
}
330
1F
100
AcDbEntity
  8
0
370
    40
100
AcDbLine
 10
-141.2861644027873
 20
72.64740930050772
 30
0.0
 11
-217.9925826289068
 21
93.20083211848039
 31
0.0
  0
LINE
  5
7C7
102
{ACAD_REACTORS
330
988
102
}
330
1F
100
AcDbEntity
  8
0
370
    40
100
AcDbLine
 10
-138.9971665475151
 20
90.03407417371098
 30
0.0
 11
-213.4925826289067
 21
109.9950607525403
 31
0.0
  0
LINE
  5
7E3
330
1F
100
AcDbEntity
  8
0
100
AcDbLine
 10
-217.9925826289068
 20
93.20083211848039
 30
0.0
 11
-213.4925826289067
 21
109.9950607525403
 31
0.0
  0
ARC
  5
7E4
330
1F
100
AcDbEntity
  8
0
370
    40
100
AcDbCircle
 10
-192.1340582432612
 20
95.27206139188621
 30
0.0
 40
25.94134295108948
100
AcDbArc
 50
145.4204704715076
 51
184.5795295284924
  0
ARC
  5
7FB
330
1F
100
AcDbEntity
  8
0
370
    40
100
AcDbCircle
 10
-138.7383475024126
 20
91.00000000000004
 30
0.0
 40
1.0
100
AcDbArc
 50
255.0
 51
270.0
  0
ARC
  5
83D
330
1F
100
AcDbEntity
  8
0
370
    40
100
AcDbCircle
 10
-136.3686025458395
 20
91.00000000000001
 30
0.0
 40
19.0
100
AcDbArc
 50
255.0
 51
270.0
  0
LINE
  5
85A
330
1F
100
AcDbEntity
  8
0
100
AcDbLine
 10
-141.0920501189605
 20
73.37185367022453
 30
0.0
 11
-217.7984683450799
 21
93.9252764881972
 31
0.0
  0
LINE
  5
85B
330
1F
100
AcDbEntity
  8
0
100
AcDbLine
 10
-217.26813825919
 20
93.0067178346535
 30
0.0
 11
-212.7681382591899
 21
109.8009464687134
 31
0.0
  0
LINE
  5
85C
330
1F
100
AcDbEntity
  8
0
100
AcDbLine
 10
-139.191280831342
 20
89.30962980399417
 30
0.0
 11
-213.6866969127336
 21
109.2706163828235
 31
0.0
  0
ARC
  5
85D
330
1F
100
AcDbEntity
  8
0
100
AcDbCircle
 10
-136.3686025458395
 20
91.00000000000001
 30
0.0
 40
18.25
100
AcDbArc
 50
255.0
 51
270.0
  0
LINE
  5
85E
330
1F
100
AcDbEntity
  8
0
100
AcDbLine
 10
0.0000000000000045
 20
72.75
 30
0.0
 11
-136.3686025458395
 21
72.75000000000002
 31
0.0
  0
ARC
  5
85F
330
1F
100
AcDbEntity
  8
0
100
AcDbCircle
 10
-138.7383475024126
 20
91.00000000000004
 30
0.0
 40
1.75
100
AcDbArc
 50
255.0
 51
270.0
  0
LINE
  5
860
330
1F
100
AcDbEntity
  8
0
100
AcDbLine
 10
-138.7383475024126
 20
89.25000000000004
 30
0.0
 11
0.0000000000000052
 21
89.24999999999998
 31
0.0
  0
LINE
  5
8AF
330
1F
100
AcDbEntity
  8
0
100
AcDbLine
 10
-198.309944784844
 20
105.9268852032495
 30
0.0
 11
-198.1805352622927
 21
106.409848116394
 31
0.0
  0
LINE
  5
8B0
330
1F
100
AcDbEntity
  8
0
100
AcDbLine
 10
-198.1805352622927
 20
106.409848116394
 30
0.0
 11
-195.2827577834255
 21
105.6333909810865
 31
0.0
  0
LINE
  5
8B1
330
1F
100
AcDbEntity
  8
0
100
AcDbLine
 10
-195.2827577834255
 20
105.6333909810865
 30
0.0
 11
-195.4121673059768
 21
105.1504280679419
 31
0.0
  0
LINE
  5
8B3
330
1F
100
AcDbEntity
  8
0
100
AcDbLine
 10
-192.3805352622927
 20
104.8557428002935
 30
0.0
 11
-189.4827577834255
 21
104.0792856649859
 31
0.0
  0
LINE
  5
8B4
330
1F
100
AcDbEntity
  8
0
100
AcDbLine
 10
-189.4827577834255
 20
104.0792856649859
 30
0.0
 11
-189.6121673059768
 21
103.5963227518414
 31
0.0
  0
LINE
  5
8B5
330
1F
100
AcDbEntity
  8
0
100
AcDbLine
 10
-192.509944784844
 20
104.372779887149
 30
0.0
 11
-192.3805352622927
 21
104.8557428002935
 31
0.0
  0
LINE
  5
8B6
330
1F
100
AcDbEntity
  8
0
100
AcDbLine
 10
-186.5805352622927
 20
103.301637484193
 30
0.0
 11
-183.6827577834255
 21
102.5251803488854
 31
0.0
  0
LINE
  5
8B7
330
1F
100
AcDbEntity
  8
0
100
AcDbLine
 10
-183.6827577834255
 20
102.5251803488854
 30
0.0
 11
-183.8121673059768
 21
102.0422174357409
 31
0.0
  0
LINE
  5
8B8
330
1F
100
AcDbEntity
  8
0
100
AcDbLine
 10
-186.709944784844
 20
102.8186745710484
 30
0.0
 11
-186.5805352622927
 21
103.301637484193
 31
0.0
  0
LINE
  5
8B9
330
1F
100
AcDbEntity
  8
0
100
AcDbLine
 10
-180.7805352622927
 20
101.7475321680925
 30
0.0
 11
-177.8827577834255
 21
100.9710750327849
 31
0.0
  0
LINE
  5
8BA
330
1F
100
AcDbEntity
  8
0
100
AcDbLine
 10
-177.8827577834255
 20
100.9710750327849
 30
0.0
 11
-178.0121673059768
 21
100.4881121196404
 31
0.0
  0
LINE
  5
8BB
330
1F
100
AcDbEntity
  8
0
100
AcDbLine
 10
-180.909944784844
 20
101.2645692549479
 30
0.0
 11
-180.7805352622927
 21
101.7475321680925
 31
0.0
  0
LINE
  5
8BC
330
1F
100
AcDbEntity
  8
0
100
AcDbLine
 10
-174.9805352622927
 20
100.193426851992
 30
0.0
 11
-172.0827577834255
 21
99.41696971668443
 31
0.0
  0
LINE
  5
8BD
330
1F
100
AcDbEntity
  8
0
100
AcDbLine
 10
-172.0827577834255
 20
99.41696971668443
 30
0.0
 11
-172.2121673059768
 21
98.93400680353989
 31
0.0
  0
LINE
  5
8BE
330
1F
100
AcDbEntity
  8
0
100
AcDbLine
 10
-175.109944784844
 20
99.71046393884746
 30
0.0
 11
-174.9805352622927
 21
100.193426851992
 31
0.0
  0
LINE
  5
8BF
330
1F
100
AcDbEntity
  8
0
100
AcDbLine
 10
-169.1805352622927
 20
98.63932153589148
 30
0.0
 11
-166.2827577834255
 21
97.86286440058391
 31
0.0
  0
LINE
  5
8C0
330
1F
100
AcDbEntity
  8
0
100
AcDbLine
 10
-166.2827577834255
 20
97.86286440058391
 30
0.0
 11
-166.4121673059768
 21
97.37990148743937
 31
0.0
  0
LINE
  5
8C1
330
1F
100
AcDbEntity
  8
0
100
AcDbLine
 10
-169.309944784844
 20
98.15635862274694
 30
0.0
 11
-169.1805352622927
 21
98.63932153589148
 31
0.0
  0
LINE
  5
8C2
330
1F
100
AcDbEntity
  8
0
100
AcDbLine
 10
-163.3805352622927
 20
97.08521621979098
 30
0.0
 11
-160.4827577834255
 21
96.30875908448341
 31
0.0
  0
LINE
  5
8C3
330
1F
100
AcDbEntity
  8
0
100
AcDbLine
 10
-160.4827577834255
 20
96.30875908448341
 30
0.0
 11
-160.6121673059768
 21
95.82579617133886
 31
0.0
  0
LINE
  5
8C4
330
1F
100
AcDbEntity
  8
0
100
AcDbLine
 10
-163.509944784844
 20
96.60225330664644
 30
0.0
 11
-163.3805352622927
 21
97.08521621979098
 31
0.0
  0
LINE
  5
8C5
330
1F
100
AcDbEntity
  8
0
100
AcDbLine
 10
-157.5805352622927
 20
95.53111090369048
 30
0.0
 11
-154.6827577834255
 21
94.75465376838291
 31
0.0
  0
LINE
  5
8C6
330
1F
100
AcDbEntity
  8
0
100
AcDbLine
 10
-154.6827577834255
 20
94.75465376838291
 30
0.0
 11
-154.8121673059768
 21
94.27169085523836
 31
0.0
  0
LINE
  5
8C7
330
1F
100
AcDbEntity
  8
0
100
AcDbLine
 10
-157.709944784844
 20
95.04814799054592
 30
0.0
 11
-157.5805352622927
 21
95.53111090369048
 31
0.0
  0
LINE
  5
8E0
330
1F
100
AcDbEntity
  8
0
100
AcDbLine
 10
6.000000000000029
 20
72.00000000000006
 30
-0.0000000000000004
 11
4.500000000000023
 21
90.0
 31
-0.0000000000000003
  0
LINE
  5
8E1
330
1F
100
AcDbEntity
  8
0
100
AcDbLine
 10
9.000000000000035
 20
72.00000000000006
 30
-0.0000000000000006
 11
7.500000000000044
 21
90.00000000000003
 31
-0.0000000000000005
  0
LINE
  5
8E2
330
1F
100
AcDbEntity
  8
0
100
AcDbLine
 10
12.00000000000003
 20
72.00000000000006
 30
-0.0000000000000007
 11
10.50000000000002
 21
90.0
 31
-0.0000000000000006
  0
LINE
  5
8E3
330
1F
100
AcDbEntity
  8
0
100
AcDbLine
 10
10.50000000000002
 20
72.00000000000002
 30
-0.0000000000000006
 11
9.00000000000003
 21
90.0
 31
-0.0000000000000006
  0
LINE
  5
8E4
330
1F
100
AcDbEntity
  8
0
370
    40
100
AcDbLine
 10
12.00000000000001
 20
90.0
 30
-0.0000000000000007
 11
12.00000000000003
 21
72.00000000000006
 31
-0.0000000000000007
  0
LINE
  5
8E5
330
1F
100
AcDbEntity
  8
0
100
AcDbLine
 10
7.500000000000015
 20
72.00000000000002
 30
-0.0000000000000005
 11
6.00000000000003
 21
90.00000000000003
 31
-0.0000000000000004
  0
LINE
  5
8E6
330
1F
100
AcDbEntity
  8
0
100
AcDbLine
 10
4.500000000000029
 20
72.00000000000002
 30
-0.0000000000000003
 11
3.000000000000023
 21
89.99999999999998
 31
-0.0000000000000002
  0
LINE
  5
8E7
330
1F
100
AcDbEntity
  8
0
100
AcDbLine
 10
3.000000000000015
 20
72.00000000000006
 30
-0.0000000000000002
 11
1.500000000000016
 21
90.00000000000003
 31
-0.0000000000000001
  0
LINE
  5
8E8
330
1F
100
AcDbEntity
  8
0
370
    40
100
AcDbLine
 10
0.0000000000000009
 20
72.0
 30
0.0
 11
3.000000000000015
 21
72.00000000000006
 31
-0.0000000000000002
  0
ARC
  5
8E9
330
1F
100
AcDbEntity
  8
0
370
    40
100
AcDbCircle
 10
6.792985747156742
 20
72.47420855170606
 30
0.0
 40
2.257384695342046
100
AcDbArc
 50
310.198934867122
 51
347.8735520687266
  0
ARC
  5
8EA
330
1F
100
AcDbEntity
  8
0
370
    40
100
AcDbCircle
 10
12.70701425284331
 20
72.47420855170592
 30
0.0
 40
2.257384695342046
100
AcDbArc
 50
192.1264479312707
 51
229.8010651328753
  0
ARC
  5
8EB
330
1F
100
AcDbEntity
  8
0
370
    40
100
AcDbCircle
 10
8.292985747156727
 20
72.47420855170602
 30
0.0
 40
2.257384695342046
100
AcDbArc
 50
310.198934867122
 51
347.8735520687266
  0
ARC
  5
8EC
330
1F
100
AcDbEntity
  8
0
370
    40
100
AcDbCircle
 10
11.20701425284334
 20
72.474208551706
 30
0.0
 40
2.257384695342046
100
AcDbArc
 50
192.1264479312707
 51
229.8010651328753
  0
ARC
  5
8ED
330
1F
100
AcDbEntity
  8
0
370
    40
100
AcDbCircle
 10
9.792985747156706
 20
72.47420855170601
 30
0.0
 40
2.257384695342046
100
AcDbArc
 50
310.198934867122
 51
347.8735520687266
  0
ARC
  5
8EE
330
1F
100
AcDbEntity
  8
0
370
    40
100
AcDbCircle
 10
2.292985747156735
 20
72.47420855170608
 30
0.0
 40
2.257384695342046
100
AcDbArc
 50
310.198934867122
 51
347.8735520687266
  0
ARC
  5
8EF
330
1F
100
AcDbEntity
  8
0
370
    40
100
AcDbCircle
 10
5.207014252843316
 20
72.47420855170594
 30
0.0
 40
2.257384695342046
100
AcDbArc
 50
192.1264479312707
 51
229.8010651328753
  0
ARC
  5
8F0
330
1F
100
AcDbEntity
  8
0
370
    40
100
AcDbCircle
 10
6.707014252843337
 20
72.4742085517059
 30
0.0
 40
2.257384695342046
100
AcDbArc
 50
192.1264479312707
 51
229.8010651328753
  0
ARC
  5
8F1
330
1F
100
AcDbEntity
  8
0
370
    40
100
AcDbCircle
 10
5.292985747156692
 20
72.47420855170599
 30
0.0
 40
2.257384695342046
100
AcDbArc
 50
310.198934867122
 51
347.8735520687266
  0
ARC
  5
8F2
330
1F
100
AcDbEntity
  8
0
370
    40
100
AcDbCircle
 10
9.707014252843343
 20
72.47420855170597
 30
0.0
 40
2.257384695342046
100
AcDbArc
 50
192.1264479312707
 51
229.8010651328753
  0
ARC
  5
8F3
330
1F
100
AcDbEntity
  8
0
370
    40
100
AcDbCircle
 10
8.207014252843308
 20
72.47420855170594
 30
0.0
 40
2.257384695342046
100
AcDbArc
 50
192.1264479312707
 51
229.8010651328753
  0
ARC
  5
8F4
330
1F
100
AcDbEntity
  8
0
370
    40
100
AcDbCircle
 10
3.792985747156742
 20
72.474208551706
 30
0.0
 40
2.257384695342046
100
AcDbArc
 50
310.198934867122
 51
347.8735520687266
  0
ARC
  5
8F5
330
1F
100
AcDbEntity
  8
0
370
    40
100
AcDbCircle
 10
0.7929857471567151
 20
89.52579144829405
 30
0.0
 40
2.257384695342046
100
AcDbArc
 50
12.1264479312707
 51
49.80106513287529
  0
ARC
  5
8F6
330
1F
100
AcDbEntity
  8
0
370
    40
100
AcDbCircle
 10
6.792985747156764
 20
89.52579144829416
 30
0.0
 40
2.257384695342046
100
AcDbArc
 50
12.1264479312707
 51
49.80106513287529
  0
ARC
  5
8F7
330
1F
100
AcDbEntity
  8
0
370
    40
100
AcDbCircle
 10
12.70701425284334
 20
89.52579144829401
 30
0.0
 40
2.257384695342046
100
AcDbArc
 50
130.198934867122
 51
167.8735520687267
  0
ARC
  5
8F8
330
1F
100
AcDbEntity
  8
0
370
    40
100
AcDbCircle
 10
8.29298574715675
 20
89.52579144829412
 30
0.0
 40
2.257384695342046
100
AcDbArc
 50
12.1264479312707
 51
49.80106513287529
  0
ARC
  5
8F9
330
1F
100
AcDbEntity
  8
0
370
    40
100
AcDbCircle
 10
11.20701425284335
 20
89.52579144829403
 30
0.0
 40
2.257384695342046
100
AcDbArc
 50
130.198934867122
 51
167.8735520687267
  0
ARC
  5
8FA
330
1F
100
AcDbEntity
  8
0
370
    40
100
AcDbCircle
 10
9.792985747156729
 20
89.52579144829408
 30
0.0
 40
2.257384695342046
100
AcDbArc
 50
12.1264479312707
 51
49.80106513287529
  0
ARC
  5
8FB
330
1F
100
AcDbEntity
  8
0
370
    40
100
AcDbCircle
 10
2.292985747156757
 20
89.52579144829412
 30
0.0
 40
2.257384695342046
100
AcDbArc
 50
12.1264479312707
 51
49.80106513287529
  0
ARC
  5
8FC
330
1F
100
AcDbEntity
  8
0
370
    40
100
AcDbCircle
 10
5.207014252843338
 20
89.52579144829403
 30
0.0
 40
2.257384695342046
100
AcDbArc
 50
130.198934867122
 51
167.8735520687267
  0
ARC
  5
8FD
330
1F
100
AcDbEntity
  8
0
370
    40
100
AcDbCircle
 10
6.707014252843331
 20
89.52579144829401
 30
0.0
 40
2.257384695342046
100
AcDbArc
 50
130.198934867122
 51
167.8735520687267
  0
ARC
  5
8FE
330
1F
100
AcDbEntity
  8
0
370
    40
100
AcDbCircle
 10
5.292985747156828
 20
89.52579144829419
 30
0.0
 40
2.257384695342046
100
AcDbArc
 50
12.1264479312707
 51
49.80106513287529
  0
ARC
  5
8FF
330
1F
100
AcDbEntity
  8
0
370
    40
100
AcDbCircle
 10
9.707014252843366
 20
89.52579144829405
 30
0.0
 40
2.257384695342046
100
AcDbArc
 50
130.198934867122
 51
167.8735520687267
  0
ARC
  5
900
330
1F
100
AcDbEntity
  8
0
370
    40
100
AcDbCircle
 10
8.207014252843423
 20
89.52579144829412
 30
0.0
 40
2.257384695342046
100
AcDbArc
 50
130.198934867122
 51
167.8735520687267
  0
ARC
  5
901
330
1F
100
AcDbEntity
  8
0
370
    40
100
AcDbCircle
 10
3.792985747156736
 20
89.52579144829407
 30
0.0
 40
2.257384695342046
100
AcDbArc
 50
12.1264479312707
 51
49.80106513287529
  0
ARC
  5
902
330
1F
100
AcDbEntity
  8
0
370
    40
100
AcDbCircle
 10
3.707014252843309
 20
89.52579144829398
 30
0.0
 40
2.257384695342046
100
AcDbArc
 50
130.198934867122
 51
167.8735520687267
  0
LINE
  5
903
330
1F
100
AcDbEntity
  8
0
370
    40
100
AcDbLine
 10
0.0000000000000091
 20
90.0
 30
0.0
 11
1.500000000000065
 21
90.00000000000001
 31
-0.0000000000000001
  0
ARC
  5
91F
330
1F
100
AcDbEntity
  8
0
100
AcDbCircle
 10
16.76450131928855
 20
134.6310313491355
 30
0.0
 40
122.5332741579374
100
AcDbArc
 50
248.872431434803
 51
262.1363617428362
  0
ARC
  5
921
330
1F
100
AcDbEntity
  8
0
100
AcDbCircle
 10
16.76450131928828
 20
-92.1310313491355
 30
0.0
 40
122.5332741579373
100
AcDbArc
 50
97.86363825716364
 51
111.1275685651968
  0
ARC
  5
922
330
1F
100
AcDbEntity
  8
0
100
AcDbCircle
 10
-26.99995492032531
 20
21.25000000000003
 30
0.0
 40
1.0
100
AcDbArc
 50
113.7115072629288
 51
246.2884927370713
  0
DIMENSION
  5
941
102
{ACAD_XDICTIONARY
360
94E
102
}
102
{ACAD_REACTORS
330
958
102
}
330
1F
100
AcDbEntity
  8
0
100
AcDbDimension
  2
*D6
 10
-224.7096835418746
 20
42.50000000000003
 30
0.0
 11
-231.1680168752079
 21
21.25
 31
0.0
 70
    32
 71
     5
 42
42.50000000000001
  3
ISO-25
100
AcDbAlignedDimension
 13
-215.87
 23
0.000000000000019
 33
0.0000000000000132
 14
-215.87
 24
42.50000000000003
 34
0.0000000000000132
 50
90.0
100
AcDbRotatedDimension
1001
ACAD
1000
DSTYLE
1002
{
1070
   140
1040
10.0
1002
}
  0
DIMENSION
  5
971
102
{ACAD_XDICTIONARY
360
97E
102
}
102
{ACAD_REACTORS
330
988
102
}
330
1F
100
AcDbEntity
  8
0
100
AcDbDimension
  2
*D7
 10
-219.7147607520554
 20
111.6622883558006
 30
0.0
 11
-227.3980935249315
 21
104.7210311674724
 31
0.0
 70
    33
  1
18
 71
     5
 42
17.38666487320321
  3
ISO-25
100
AcDbAlignedDimension
 13
-217.9925826289068
 23
93.20083211848039
 33
0.0
 14
-213.4925826289067
 24
109.9950607525403
 34
0.0
1001
ACAD
1000
DSTYLE
1002
{
1070
   140
1040
10.0
1002
}
  0
DIMENSION
  5
9B3
102
{ACAD_XDICTIONARY
360
9C0
102
}
102
{ACAD_REACTORS
330
9CA
102
}
330
1F
100
AcDbEntity
  8
0
100
AcDbDimension
  2
*D8
 10
-0.000000000000001
 20
-16.32878270772169
 30
0.0
 11
-107.935
 21
-10.70378270772169
 31
0.0
 70
    32
  1
216
 71
     5
 42
215.87
  3
ISO-25
100
AcDbAlignedDimension
 13
-215.87
 23
0.000000000000019
 33
0.0
 14
0.0
 24
0.0
 34
0.0
 50
180.0
100
AcDbRotatedDimension
1001
ACAD
1000
DSTYLE
1002
{
1070
   140
1040
10.0
1002
}
  0
MTEXT
  5
A64
330
1F
100
AcDbEntity
  8
0
100
AcDbMText
 10
-14.47305341756616
 20
64.5743059976772
 30
0.0
 40
10.0
 41
61.6174
 71
     1
 72
     5
  1
\A1;G{\H0.7x;\S1#2;}"
 73
     1
 44
1.0
  0
ENDSEC
  0
SECTION
  2
OBJECTS
  0
DICTIONARY
  5
C
330
0
100
AcDbDictionary
281
     1
  3
ACAD_BACKGROUND
350
A83
  3
ACAD_COLOR
350
A7D
  3
ACAD_GROUP
350
D
  3
ACAD_LAYOUT
350
1A
  3
ACAD_MATERIAL
350
A68
  3
ACAD_MLEADERSTYLE
350
B4A
  3
ACAD_MLINESTYLE
350
17
  3
ACAD_PLOTSETTINGS
350
19
  3
ACAD_PLOTSTYLENAME
350
E
  3
ACAD_SCALELIST
350
B28
  3
ACAD_TABLESTYLE
350
A7E
  3
ACAD_VISUALSTYLE
350
A6C
  3
ACDB_RECOMPOSE_DATA
350
B7A
  3
AcDbVariableDictionary
350
5E
  3
AcmDictionary
350
AE5
  3
AMG
350
A88
  3
AMGSNAPSETTINGS
350
B6A
  3
AVE_ACITABLE
350
33D
  0
DICTIONARY
  5
B71
330
10
100
AcDbDictionary
280
     1
281
     1
  3
ADSK_XREC_LAYER_RECONCILED
360
B72
  0
DICTIONARY
  5
B73
330
32A
100
AcDbDictionary
280
     1
281
     1
  3
ADSK_XREC_LAYER_RECONCILED
360
B74
  0
DICTIONARY
  5
94E
330
941
100
AcDbDictionary
280
     1
281
     1
  3
ACAD_DIMASSOC
360
958
  0
DICTIONARY
  5
97E
330
971
100
AcDbDictionary
280
     1
281
     1
  3
ACAD_DIMASSOC
360
988
  0
DICTIONARY
  5
9C0
330
9B3
100
AcDbDictionary
280
     1
281
     1
  3
ACAD_DIMASSOC
360
9CA
  0
DICTIONARY
  5
A83
102
{ACAD_REACTORS
330
C
102
}
330
C
100
AcDbDictionary
281
     1
  0
DICTIONARY
  5
A7D
102
{ACAD_REACTORS
330
C
102
}
330
C
100
AcDbDictionary
281
     1
  0
DICTIONARY
  5
D
102
{ACAD_REACTORS
330
C
102
}
330
C
100
AcDbDictionary
281
     1
  0
DICTIONARY
  5
1A
102
{ACAD_REACTORS
330
C
102
}
330
C
100
AcDbDictionary
281
     1
  3
Layout1
350
51
  3
Layout2
350
56
  3
Model
350
22
  0
DICTIONARY
  5
A68
102
{ACAD_REACTORS
330
C
102
}
330
C
100
AcDbDictionary
281
     1
  3
ByBlock
350
A6A
  3
ByLayer
350
A69
  3
Global
350
A6B
  0
DICTIONARY
  5
B4A
102
{ACAD_REACTORS
330
C
102
}
330
C
100
AcDbDictionary
281
     1
  3
Standard
350
B4B
  0
DICTIONARY
  5
17
102
{ACAD_REACTORS
330
C
102
}
330
C
100
AcDbDictionary
281
     1
  3
Standard
350
18
  0
DICTIONARY
  5
19
102
{ACAD_REACTORS
330
C
102
}
330
C
100
AcDbDictionary
281
     1
  0
ACDBDICTIONARYWDFLT
  5
E
102
{ACAD_REACTORS
330
C
102
}
330
C
100
AcDbDictionary
281
     1
  3
ByLayer
350
3A6
  3
Normal
350
F
100
AcDbDictionaryWithDefault
340
F
  0
DICTIONARY
  5
B28
102
{ACAD_REACTORS
330
C
102
}
330
C
100
AcDbDictionary
281
     1
  3
A0
350
B29
  3
A1
350
B2A
  3
A2
350
B2B
  3
A3
350
B2C
  3
A4
350
B2D
  3
A5
350
B2E
  3
A6
350
B2F
  3
A7
350
B30
  3
A8
350
B31
  3
A9
350
B32
  3
B0
350
B33
  3
B1
350
B34
  3
B2
350
B35
  3
B3
350
B36
  3
B4
350
B37
  3
B5
350
B38
  3
B6
350
B39
  3
B7
350
B3A
  3
B8
350
B3B
  3
B9
350
B3C
  3
C0
350
B3D
  3
C1
350
B3E
  3
C2
350
B3F
  3
C3
350
B40
  3
C4
350
B41
  3
C5
350
B42
  3
C6
350
B43
  3
C7
350
B44
  3
C8
350
B45
  3
C9
350
B46
  3
D0
350
B47
  3
D1
350
B48
  3
D2
350
B49
  0
DICTIONARY
  5
A7E
102
{ACAD_REACTORS
330
C
102
}
330
C
100
AcDbDictionary
281
     1
  3
Standard
350
A7F
  0
DICTIONARY
  5
A6C
102
{ACAD_REACTORS
330
C
102
}
330
C
100
AcDbDictionary
281
     1
  3
*A1
350
A82
  3
*A2
350
A87
  3
*A4
350
B77
  3
2dWireframe
350
A72
  3
3D Hidden
350
A74
  3
3dWireframe
350
A73
  3
Basic
350
A71
  3
Brighten
350
A78
  3
ColorChange
350
A7C
  3
Conceptual
350
A75
  3
Dim
350
A77
  3
Facepattern
350
A7B
  3
Flat
350
A6D
  3
FlatWithEdges
350
A6E
  3
Gouraud
350
A6F
  3
GouraudWithEdges
350
A70
  3
Linepattern
350
A7A
  3
Realistic
350
A76
  3
Thicken
350
A79
  0
XRECORD
  5
B7A
102
{ACAD_REACTORS
330
C
102
}
330
C
100
AcDbXrecord
280
     1
 90
        1
330
A7F
  0
DICTIONARY
  5
5E
102
{ACAD_REACTORS
330
C
102
}
330
C
100
AcDbDictionary
281
     1
  3
CANNOSCALE
350
B76
  3
CMLEADERSTYLE
350
B75
  3
CTABLESTYLE
350
B26
  3
DIMASSOC
350
5F
  3
HIDETEXT
350
63
  0
DICTIONARY
  5
AE5
102
{ACAD_REACTORS
330
C
102
}
330
C
100
AcDbDictionary
281
     1
  3
AcmStdDictionary
350
AF0
  3
AMDTSECTSYM_ARROWCOLOR
350
B0F
  0
DICTIONARY
  5
A88
102
{ACAD_REACTORS
330
C
102
}
330
C
100
AcDbDictionary
281
     1
  0
DICTIONARY
  5
B6A
102
{ACAD_REACTORS
330
C
102
}
330
C
100
AcDbDictionary
281
     1
  0
DICTIONARY
  5
33D
102
{ACAD_REACTORS
330
C
102
}
330
C
100
AcDbDictionary
281
     1
  0
XRECORD
  5
B72
102
{ACAD_REACTORS
330
B71
102
}
330
B71
100
AcDbXrecord
280
     1
290
     1
  0
XRECORD
  5
B74
102
{ACAD_REACTORS
330
B73
102
}
330
B73
100
AcDbXrecord
280
     1
290
     1
  0
DIMASSOC
  5
958
102
{ACAD_REACTORS
330
94E
102
}
330
94E
100
AcDbDimAssoc
330
941
 90
        3
 70
     0
 71
     0
  1
AcDbOsnapPointRef
 72
     1
331
471
 73
     2
 91
        0
 40
1.0
 10
-215.87
 20
0.000000000000019
 30
0.0000000000000132
 75
     0
  1
AcDbOsnapPointRef
 72
    13
331
473
 73
     2
 91
        0
 40
0.0
 10
-215.87
 20
42.50000000000003
 30
0.0000000000000132
 75
     0
  0
DIMASSOC
  5
988
102
{ACAD_REACTORS
330
97E
102
}
330
97E
100
AcDbDimAssoc
330
971
 90
        3
 70
     0
 71
     0
  1
AcDbOsnapPointRef
 72
     1
331
7C6
 73
     2
 91
        0
 40
1.0
 10
-217.9925826289068
 20
93.20083211848039
 30
0.0
 75
     0
  1
AcDbOsnapPointRef
 72
     1
331
7C7
 73
     2
 91
        0
 40
1.0
 10
-213.4925826289067
 20
109.9950607525403
 30
0.0
 75
     0
  0
DIMASSOC
  5
9CA
102
{ACAD_REACTORS
330
9C0
102
}
330
9C0
100
AcDbDimAssoc
330
9B3
 90
        2
 70
     0
 71
     0
  1
AcDbOsnapPointRef
 72
    13
331
456
 73
     2
 91
        0
 40
0.0
 10
0.0
 20
0.0
 30
0.0
 75
     0
  0
LAYOUT
  5
51
102
{ACAD_REACTORS
330
1A
102
}
330
1A
100
AcDbPlotSettings
  1

  2
None
  4

  6

 40
0.0
 41
0.0
 42
0.0
 43
0.0
 44
0.0
 45
0.0
 46
0.0
 47
0.0
 48
0.0
 49
0.0
140
0.0
141
0.0
142
1.0
143
1.0
 70
   688
 72
     0
 73
     0
 74
     5
  7

 75
    16
147
1.0
 76
     0
 77
     2
 78
   300
148
0.0
149
0.0
100
AcDbLayout
  1
Layout1
 70
     1
 71
     1
 10
0.0
 20
0.0
 11
12.0
 21
9.0
 12
0.0
 22
0.0
 32
0.0
 14
0.0
 24
0.0
 34
0.0
 15
0.0
 25
0.0
 35
0.0
146
0.0
 13
0.0
 23
0.0
 33
0.0
 16
1.0
 26
0.0
 36
0.0
 17
0.0
 27
1.0
 37
0.0
 76
     0
330
50
  0
LAYOUT
  5
56
102
{ACAD_REACTORS
330
1A
102
}
330
1A
100
AcDbPlotSettings
  1

  2
None
  4

  6

 40
0.0
 41
0.0
 42
0.0
 43
0.0
 44
0.0
 45
0.0
 46
0.0
 47
0.0
 48
0.0
 49
0.0
140
0.0
141
0.0
142
1.0
143
1.0
 70
   688
 72
     0
 73
     0
 74
     5
  7

 75
    16
147
1.0
 76
     0
 77
     2
 78
   300
148
0.0
149
0.0
100
AcDbLayout
  1
Layout2
 70
     1
 71
     2
 10
0.0
 20
0.0
 11
12.0
 21
9.0
 12
0.0
 22
0.0
 32
0.0
 14
0.0
 24
0.0
 34
0.0
 15
0.0
 25
0.0
 35
0.0
146
0.0
 13
0.0
 23
0.0
 33
0.0
 16
1.0
 26
0.0
 36
0.0
 17
0.0
 27
1.0
 37
0.0
 76
     0
330
55
  0
LAYOUT
  5
22
102
{ACAD_REACTORS
330
1A
102
}
330
1A
100
AcDbPlotSettings
  1

  2
none_device
  4
ANSI_A_(8.50_x_11.00_Inches)
  6

 40
6.349999904632568
 41
19.04999923706055
 42
6.350006103515625
 43
19.04998779296875
 44
215.8999938964844
 45
279.3999938964844
 46
0.0
 47
0.0
 48
0.0
 49
0.0
140
0.0
141
0.0
142
1.0
143
78.436453180766
 70
 11952
 72
     0
 73
     1
 74
     0
  7

 75
     0
147
0.0127491741332998
 76
     0
 77
     2
 78
   300
148
0.0
149
0.0
100
AcDbLayout
  1
Model
 70
     1
 71
     0
 10
0.0
 20
0.0
 11
12.0
 21
9.0
 12
0.0
 22
0.0
 32
0.0
 14
0.0
 24
0.0
 34
0.0
 15
0.0
 25
0.0
 35
0.0
146
0.0
 13
0.0
 23
0.0
 33
0.0
 16
1.0
 26
0.0
 36
0.0
 17
0.0
 27
1.0
 37
0.0
 76
     0
330
1F
331
A66
  0
MATERIAL
  5
A6A
102
{ACAD_XDICTIONARY
360
B7D
102
}
102
{ACAD_REACTORS
330
A68
102
}
330
A68
100
AcDbMaterial
  1
ByBlock
 73
     1
 78
     1
172
     1
176
     1
270
     1
274
     1
  0
MATERIAL
  5
A69
102
{ACAD_XDICTIONARY
360
B7B
102
}
102
{ACAD_REACTORS
330
A68
102
}
330
A68
100
AcDbMaterial
  1
ByLayer
 73
     1
 78
     1
172
     1
176
     1
270
     1
274
     1
  0
MATERIAL
  5
A6B
102
{ACAD_XDICTIONARY
360
B7F
102
}
102
{ACAD_REACTORS
330
A68
102
}
330
A68
100
AcDbMaterial
  1
Global
 73
     1
 78
     1
172
     1
176
     1
270
     1
274
     1
  0
MLEADERSTYLE
  5
B4B
102
{ACAD_REACTORS
330
B4A
102
}
330
B4A
100
AcDbMLeaderStyle
170
     2
171
     1
172
     0
 90
        2
 40
0.0
 41
0.0
173
     1
 91
-1056964608
340
14
 92
       -2
290
     1
 42
2.0
291
     1
 43
0.36
  3
Standard
 44
4.0
300

342
11
174
     1
178
     6
175
     1
176
     0
 93
-1056964608
 45
4.0
292
     0
297
     0
 46
4.0
 94
-1056964608
 47
1.0
 49
1.0
140
1.0
293
     1
141
0.0
294
     1
177
     0
142
1.0
295
     0
296
     0
143
0.125
1001
ACAD_MLEADERVER
1070
     2
  0
MLINESTYLE
  5
18
102
{ACAD_REACTORS
330
17
102
}
330
17
100
AcDbMlineStyle
  2
STANDARD
 70
     0
  3

 62
   256
 51
90.0
 52
90.0
 71
     2
 49
0.5
 62
   256
  6
BYLAYER
 49
-0.5
 62
   256
  6
BYLAYER
  0
ACDBPLACEHOLDER
  5
3A6
102
{ACAD_REACTORS
330
E
102
}
330
E
  0
ACDBPLACEHOLDER
  5
F
102
{ACAD_REACTORS
330
E
102
}
330
E
  0
SCALE
  5
B29
102
{ACAD_REACTORS
330
B28
102
}
330
B28
100
AcDbScale
 70
     0
300
1:1
140
1.0
141
1.0
290
     1
  0
SCALE
  5
B2A
102
{ACAD_REACTORS
330
B28
102
}
330
B28
100
AcDbScale
 70
     0
300
1:2
140
1.0
141
2.0
290
     0
  0
SCALE
  5
B2B
102
{ACAD_REACTORS
330
B28
102
}
330
B28
100
AcDbScale
 70
     0
300
1:4
140
1.0
141
4.0
290
     0
  0
SCALE
  5
B2C
102
{ACAD_REACTORS
330
B28
102
}
330
B28
100
AcDbScale
 70
     0
300
1:5
140
1.0
141
5.0
290
     0
  0
SCALE
  5
B2D
102
{ACAD_REACTORS
330
B28
102
}
330
B28
100
AcDbScale
 70
     0
300
1:8
140
1.0
141
8.0
290
     0
  0
SCALE
  5
B2E
102
{ACAD_REACTORS
330
B28
102
}
330
B28
100
AcDbScale
 70
     0
300
1:10
140
1.0
141
10.0
290
     0
  0
SCALE
  5
B2F
102
{ACAD_REACTORS
330
B28
102
}
330
B28
100
AcDbScale
 70
     0
300
1:16
140
1.0
141
16.0
290
     0
  0
SCALE
  5
B30
102
{ACAD_REACTORS
330
B28
102
}
330
B28
100
AcDbScale
 70
     0
300
1:20
140
1.0
141
20.0
290
     0
  0
SCALE
  5
B31
102
{ACAD_REACTORS
330
B28
102
}
330
B28
100
AcDbScale
 70
     0
300
1:30
140
1.0
141
30.0
290
     0
  0
SCALE
  5
B32
102
{ACAD_REACTORS
330
B28
102
}
330
B28
100
AcDbScale
 70
     0
300
1:40
140
1.0
141
40.0
290
     0
  0
SCALE
  5
B33
102
{ACAD_REACTORS
330
B28
102
}
330
B28
100
AcDbScale
 70
     0
300
1:50
140
1.0
141
50.0
290
     0
  0
SCALE
  5
B34
102
{ACAD_REACTORS
330
B28
102
}
330
B28
100
AcDbScale
 70
     0
300
1:100
140
1.0
141
100.0
290
     0
  0
SCALE
  5
B35
102
{ACAD_REACTORS
330
B28
102
}
330
B28
100
AcDbScale
 70
     0
300
2:1
140
2.0
141
1.0
290
     0
  0
SCALE
  5
B36
102
{ACAD_REACTORS
330
B28
102
}
330
B28
100
AcDbScale
 70
     0
300
4:1
140
4.0
141
1.0
290
     0
  0
SCALE
  5
B37
102
{ACAD_REACTORS
330
B28
102
}
330
B28
100
AcDbScale
 70
     0
300
8:1
140
8.0
141
1.0
290
     0
  0
SCALE
  5
B38
102
{ACAD_REACTORS
330
B28
102
}
330
B28
100
AcDbScale
 70
     0
300
10:1
140
10.0
141
1.0
290
     0
  0
SCALE
  5
B39
102
{ACAD_REACTORS
330
B28
102
}
330
B28
100
AcDbScale
 70
     0
300
100:1
140
100.0
141
1.0
290
     0
  0
SCALE
  5
B3A
102
{ACAD_REACTORS
330
B28
102
}
330
B28
100
AcDbScale
 70
     0
300
1/128" = 1'-0"
140
0.0078125
141
12.0
290
     0
  0
SCALE
  5
B3B
102
{ACAD_REACTORS
330
B28
102
}
330
B28
100
AcDbScale
 70
     0
300
1/64" = 1'-0"
140
0.015625
141
12.0
290
     0
  0
SCALE
  5
B3C
102
{ACAD_REACTORS
330
B28
102
}
330
B28
100
AcDbScale
 70
     0
300
1/32" = 1'-0"
140
0.03125
141
12.0
290
     0
  0
SCALE
  5
B3D
102
{ACAD_REACTORS
330
B28
102
}
330
B28
100
AcDbScale
 70
     0
300
1/16" = 1'-0"
140
0.0625
141
12.0
290
     0
  0
SCALE
  5
B3E
102
{ACAD_REACTORS
330
B28
102
}
330
B28
100
AcDbScale
 70
     0
300
3/32" = 1'-0"
140
0.09375
141
12.0
290
     0
  0
SCALE
  5
B3F
102
{ACAD_REACTORS
330
B28
102
}
330
B28
100
AcDbScale
 70
     0
300
1/8" = 1'-0"
140
0.125
141
12.0
290
     0
  0
SCALE
  5
B40
102
{ACAD_REACTORS
330
B28
102
}
330
B28
100
AcDbScale
 70
     0
300
3/16" = 1'-0"
140
0.1875
141
12.0
290
     0
  0
SCALE
  5
B41
102
{ACAD_REACTORS
330
B28
102
}
330
B28
100
AcDbScale
 70
     0
300
1/4" = 1'-0"
140
0.25
141
12.0
290
     0
  0
SCALE
  5
B42
102
{ACAD_REACTORS
330
B28
102
}
330
B28
100
AcDbScale
 70
     0
300
3/8" = 1'-0"
140
0.375
141
12.0
290
     0
  0
SCALE
  5
B43
102
{ACAD_REACTORS
330
B28
102
}
330
B28
100
AcDbScale
 70
     0
300
1/2" = 1'-0"
140
0.5
141
12.0
290
     0
  0
SCALE
  5
B44
102
{ACAD_REACTORS
330
B28
102
}
330
B28
100
AcDbScale
 70
     0
300
3/4" = 1'-0"
140
0.75
141
12.0
290
     0
  0
SCALE
  5
B45
102
{ACAD_REACTORS
330
B28
102
}
330
B28
100
AcDbScale
 70
     0
300
1" = 1'-0"
140
1.0
141
12.0
290
     0
  0
SCALE
  5
B46
102
{ACAD_REACTORS
330
B28
102
}
330
B28
100
AcDbScale
 70
     0
300
1-1/2" = 1'-0"
140
1.5
141
12.0
290
     0
  0
SCALE
  5
B47
102
{ACAD_REACTORS
330
B28
102
}
330
B28
100
AcDbScale
 70
     0
300
3" = 1'-0"
140
3.0
141
12.0
290
     0
  0
SCALE
  5
B48
102
{ACAD_REACTORS
330
B28
102
}
330
B28
100
AcDbScale
 70
     0
300
6" = 1'-0"
140
6.0
141
12.0
290
     0
  0
SCALE
  5
B49
102
{ACAD_REACTORS
330
B28
102
}
330
B28
100
AcDbScale
 70
     0
300
1'-0" = 1'-0"
140
12.0
141
12.0
290
     0
  0
TABLESTYLE
  5
A7F
102
{ACAD_XDICTIONARY
360
B78
102
}
102
{ACAD_REACTORS
330
A7E
102
}
330
A7E
100
AcDbTableStyle
  3
Standard
 70
     0
 71
     0
 40
1.5
 41
1.5
280
     0
281
     0
  7
Standard
140
4.5
170
     2
 62
     0
 63
     7
283
     0
274
    -2
284
     1
 64
     0
275
    -2
285
     1
 65
     0
276
    -2
286
     1
 66
     0
277
    -2
287
     1
 67
     0
278
    -2
288
     1
 68
     0
279
    -2
289
     1
 69
     0
  7
Standard
140
6.0
170
     5
 62
     0
 63
     7
283
     0
274
    -2
284
     1
 64
     0
275
    -2
285
     1
 65
     0
276
    -2
286
     1
 66
     0
277
    -2
287
     1
 67
     0
278
    -2
288
     1
 68
     0
279
    -2
289
     1
 69
     0
  7
Standard
140
4.5
170
     5
 62
     0
 63
     7
283
     0
274
    -2
284
     1
 64
     0
275
    -2
285
     1
 65
     0
276
    -2
286
     1
 66
     0
277
    -2
287
     1
 67
     0
278
    -2
288
     1
 68
     0
279
    -2
289
     1
 69
     0
  0
VISUALSTYLE
  5
A82
102
{ACAD_REACTORS
330
A6C
102
}
330
A6C
100
AcDbVisualStyle
  2
*
 70
    10
 71
     0
 72
     2
 73
     0
 90
        0
 40
-0.6
 41
-30.0
 62
     5
 63
     7
421
 16777215
 74
     1
 91
        6
 64
     7
 65
   257
 75
     1
175
     1
 42
1.0
 92
        0
 66
   257
 43
1.0
 76
     1
 77
     6
 78
     2
 67
     7
 79
     1
170
     0
171
     0
290
     0
174
     0
 93
        1
 44
0.0
173
     0
291
     0
 45
0.0
1001
ACAD
1000
AcDbSavedByObjectVersion
1070
     0
  0
VISUALSTYLE
  5
A87
102
{ACAD_REACTORS
330
A6C
102
}
330
A6C
100
AcDbVisualStyle
  2
*
 70
    10
 71
     0
 72
     2
 73
     0
 90
        0
 40
-0.6
 41
-30.0
 62
     5
 63
     7
421
 16777215
 74
     1
 91
        6
 64
     7
 65
   257
 75
     1
175
     1
 42
1.0
 92
        0
 66
   257
 43
1.0
 76
     1
 77
     6
 78
     2
 67
     7
 79
     1
170
     0
171
     0
290
     0
174
     0
 93
        1
 44
0.0
173
     0
291
     0
 45
0.0
1001
ACAD
1000
AcDbSavedByObjectVersion
1070
     0
  0
VISUALSTYLE
  5
B77
102
{ACAD_REACTORS
330
A6C
102
}
330
A6C
100
AcDbVisualStyle
  2
*
 70
    10
 71
     0
 72
     2
 73
     0
 90
        0
 40
-0.6
 41
-30.0
 62
     5
 63
     7
421
 16777215
 74
     1
 91
        6
 64
     7
 65
   257
 75
     1
175
     1
 42
1.0
 92
        0
 66
   257
 43
1.0
 76
     1
 77
     6
 78
     2
 67
     7
 79
     1
170
     0
171
     0
290
     0
174
     0
 93
        1
 44
0.0
173
     0
291
     0
 45
0.0
1001
ACAD
1000
AcDbSavedByObjectVersion
1070
     0
  0
VISUALSTYLE
  5
A72
102
{ACAD_REACTORS
330
A6C
102
}
330
A6C
100
AcDbVisualStyle
  2
2dWireframe
 70
     4
 71
     0
 72
     2
 73
     0
 90
        0
 40
-0.6
 41
-30.0
 62
     5
 63
     7
421
 16777215
 74
     1
 91
        4
 64
     7
 65
   257
 75
     1
175
     1
 42
1.0
 92
        0
 66
   257
 43
1.0
 76
     1
 77
     6
 78
     2
 67
     7
 79
     5
170
     0
171
     0
290
     0
174
     0
 93
        1
 44
0.0
173
     0
291
     0
 45
0.0
1001
ACAD
1000
AcDbSavedByObjectVersion
1070
     0
  0
VISUALSTYLE
  5
A74
102
{ACAD_REACTORS
330
A6C
102
}
330
A6C
100
AcDbVisualStyle
  2
3D Hidden
 70
     6
 71
     1
 72
     2
 73
     2
 90
        0
 40
-0.6
 41
-30.0
 62
     5
 63
     7
421
 16777215
 74
     2
 91
        2
 64
     7
 65
   257
 75
     2
175
     1
 42
40.0
 92
        0
 66
   257
 43
1.0
 76
     1
 77
     6
 78
     2
 67
     7
 79
     3
170
     0
171
     0
290
     0
174
     0
 93
        1
 44
0.0
173
     0
291
     0
 45
0.0
1001
ACAD
1000
AcDbSavedByObjectVersion
1070
     0
  0
VISUALSTYLE
  5
A73
102
{ACAD_REACTORS
330
A6C
102
}
330
A6C
100
AcDbVisualStyle
  2
3dWireframe
 70
     5
 71
     0
 72
     2
 73
     0
 90
        0
 40
-0.6
 41
-30.0
 62
     5
 63
     7
421
 16777215
 74
     1
 91
        4
 64
     7
 65
   257
 75
     1
175
     1
 42
1.0
 92
        0
 66
   257
 43
1.0
 76
     1
 77
     6
 78
     2
 67
     7
 79
     5
170
     0
171
     0
290
     0
174
     0
 93
        1
 44
0.0
173
     0
291
     0
 45
0.0
1001
ACAD
1000
AcDbSavedByObjectVersion
1070
     0
  0
VISUALSTYLE
  5
A71
102
{ACAD_REACTORS
330
A6C
102
}
330
A6C
100
AcDbVisualStyle
  2
Basic
 70
     7
 71
     1
 72
     0
 73
     1
 90
        0
 40
-0.6
 41
-30.0
 62
     5
 63
     7
421
 16777215
 74
     0
 91
        4
 64
     7
 65
   257
 75
     1
175
     1
 42
1.0
 92
        8
 66
     7
 43
1.0
 76
     1
 77
     6
 78
     2
 67
     7
 79
     5
170
     0
171
     0
290
     0
174
     0
 93
        1
 44
0.0
173
     0
291
     1
 45
0.0
1001
ACAD
1000
AcDbSavedByObjectVersion
1070
     0
  0
VISUALSTYLE
  5
A78
102
{ACAD_REACTORS
330
A6C
102
}
330
A6C
100
AcDbVisualStyle
  2
Brighten
 70
    12
 71
     2
 72
     2
 73
     0
 90
        0
 40
-0.6
 41
-30.0
 62
     5
 63
     7
421
 16777215
 74
     1
 91
        4
 64
     7
 65
   257
 75
     1
175
     1
 42
1.0
 92
        8
 66
     7
 43
1.0
 76
     1
 77
     6
 78
     2
 67
     7
 79
     5
170
     0
171
     0
290
     0
174
     0
 93
        1
 44
50.0
173
     0
291
     1
 45
0.0
1001
ACAD
1000
AcDbSavedByObjectVersion
1070
     0
  0
VISUALSTYLE
  5
A7C
102
{ACAD_REACTORS
330
A6C
102
}
330
A6C
100
AcDbVisualStyle
  2
ColorChange
 70
    16
 71
     2
 72
     2
 73
     3
 90
        0
 40
-0.6
 41
-30.0
 62
     5
 63
     8
421
  8421504
 74
     1
 91
        4
 64
     7
 65
   257
 75
     1
175
     1
 42
1.0
 92
        8
 66
     8
424
  8421504
 43
1.0
 76
     1
 77
     6
 78
     2
 67
     7
 79
     5
170
     0
171
     0
290
     0
174
     0
 93
        1
 44
0.0
173
     0
291
     1
 45
0.0
1001
ACAD
1000
AcDbSavedByObjectVersion
1070
     0
  0
VISUALSTYLE
  5
A75
102
{ACAD_REACTORS
330
A6C
102
}
330
A6C
100
AcDbVisualStyle
  2
Conceptual
 70
     9
 71
     3
 72
     2
 73
     0
 90
        0
 40
-0.6
 41
-30.0
 62
     5
 63
     7
421
 16777215
 74
     2
 91
        2
 64
     7
 65
   257
 75
     1
175
     1
 42
40.0
 92
        8
 66
     7
 43
1.0
 76
     1
 77
     6
 78
     2
 67
     7
 79
     3
170
     0
171
     0
290
     0
174
     0
 93
        1
 44
0.0
173
     0
291
     0
 45
0.0
1001
ACAD
1000
AcDbSavedByObjectVersion
1070
     0
  0
VISUALSTYLE
  5
A77
102
{ACAD_REACTORS
330
A6C
102
}
330
A6C
100
AcDbVisualStyle
  2
Dim
 70
    11
 71
     2
 72
     2
 73
     0
 90
        0
 40
-0.6
 41
-30.0
 62
     5
 63
     7
421
 16777215
 74
     1
 91
        4
 64
     7
 65
   257
 75
     1
175
     1
 42
1.0
 92
        8
 66
     7
 43
1.0
 76
     1
 77
     6
 78
     2
 67
     7
 79
     5
170
     0
171
     0
290
     0
174
     0
 93
        1
 44
-50.0
173
     0
291
     1
 45
0.0
1001
ACAD
1000
AcDbSavedByObjectVersion
1070
     0
  0
VISUALSTYLE
  5
A7B
102
{ACAD_REACTORS
330
A6C
102
}
330
A6C
100
AcDbVisualStyle
  2
Facepattern
 70
    15
 71
     2
 72
     2
 73
     0
 90
        0
 40
-0.6
 41
-30.0
 62
     5
 63
     7
421
 16777215
 74
     1
 91
        4
 64
     7
 65
   257
 75
     1
175
     1
 42
1.0
 92
        8
 66
     7
 43
1.0
 76
     1
 77
     6
 78
     2
 67
     7
 79
     5
170
     0
171
     0
290
     0
174
     0
 93
        1
 44
0.0
173
     0
291
     1
 45
0.0
1001
ACAD
1000
AcDbSavedByObjectVersion
1070
     0
  0
VISUALSTYLE
  5
A6D
102
{ACAD_REACTORS
330
A6C
102
}
330
A6C
100
AcDbVisualStyle
  2
Flat
 70
     0
 71
     2
 72
     1
 73
     1
 90
        2
 40
-0.6
 41
30.0
 62
     5
 63
     7
421
 16777215
 74
     0
 91
        4
 64
     7
 65
   257
 75
     1
175
     1
 42
1.0
 92
        8
 66
     7
 43
1.0
 76
     1
 77
     6
 78
     2
 67
     7
 79
     5
170
     0
171
     0
290
     0
174
     0
 93
       13
 44
0.0
173
     0
291
     1
 45
0.0
1001
ACAD
1000
AcDbSavedByObjectVersion
1070
     0
  0
VISUALSTYLE
  5
A6E
102
{ACAD_REACTORS
330
A6C
102
}
330
A6C
100
AcDbVisualStyle
  2
FlatWithEdges
 70
     1
 71
     2
 72
     1
 73
     1
 90
        2
 40
-0.6
 41
30.0
 62
     5
 63
     7
421
 16777215
 74
     1
 91
        4
 64
     7
 65
   257
 75
     1
175
     1
 42
1.0
 92
        0
 66
   257
 43
1.0
 76
     1
 77
     6
 78
     2
 67
     7
 79
     5
170
     0
171
     0
290
     0
174
     0
 93
       13
 44
0.0
173
     0
291
     1
 45
0.0
1001
ACAD
1000
AcDbSavedByObjectVersion
1070
     0
  0
VISUALSTYLE
  5
A6F
102
{ACAD_REACTORS
330
A6C
102
}
330
A6C
100
AcDbVisualStyle
  2
Gouraud
 70
     2
 71
     2
 72
     2
 73
     1
 90
        2
 40
-0.6
 41
30.0
 62
     5
 63
     7
421
 16777215
 74
     0
 91
        4
 64
     7
 65
   257
 75
     1
175
     1
 42
1.0
 92
        0
 66
     7
 43
1.0
 76
     1
 77
     6
 78
     2
 67
     7
 79
     5
170
     0
171
     0
290
     0
174
     0
 93
       13
 44
0.0
173
     0
291
     1
 45
0.0
1001
ACAD
1000
AcDbSavedByObjectVersion
1070
     0
  0
VISUALSTYLE
  5
A70
102
{ACAD_REACTORS
330
A6C
102
}
330
A6C
100
AcDbVisualStyle
  2
GouraudWithEdges
 70
     3
 71
     2
 72
     2
 73
     1
 90
        2
 40
-0.6
 41
30.0
 62
     5
 63
     7
421
 16777215
 74
     1
 91
        4
 64
     7
 65
   257
 75
     1
175
     1
 42
1.0
 92
        0
 66
   257
 43
1.0
 76
     1
 77
     6
 78
     2
 67
     7
 79
     5
170
     0
171
     0
290
     0
174
     0
 93
       13
 44
0.0
173
     0
291
     1
 45
0.0
1001
ACAD
1000
AcDbSavedByObjectVersion
1070
     0
  0
VISUALSTYLE
  5
A7A
102
{ACAD_REACTORS
330
A6C
102
}
330
A6C
100
AcDbVisualStyle
  2
Linepattern
 70
    14
 71
     2
 72
     2
 73
     0
 90
        0
 40
-0.6
 41
-30.0
 62
     5
 63
     7
421
 16777215
 74
     1
 91
        4
 64
     7
 65
   257
 75
     7
175
     7
 42
1.0
 92
        8
 66
     7
 43
1.0
 76
     1
 77
     6
 78
     2
 67
     7
 79
     5
170
     0
171
     0
290
     0
174
     0
 93
        1
 44
0.0
173
     0
291
     1
 45
0.0
1001
ACAD
1000
AcDbSavedByObjectVersion
1070
     0
  0
VISUALSTYLE
  5
A76
102
{ACAD_REACTORS
330
A6C
102
}
330
A6C
100
AcDbVisualStyle
  2
Realistic
 70
     8
 71
     2
 72
     2
 73
     0
 90
        0
 40
-0.6
 41
-30.0
 62
     5
 63
     7
421
 16777215
 74
     1
 91
        0
 64
     7
 65
   257
 75
     1
175
     1
 42
1.0
 92
        8
 66
     8
424
  7895160
 43
1.0
 76
     1
 77
     6
 78
     2
 67
     7
 79
     5
170
     0
171
     0
290
     0
174
     0
 93
       13
 44
0.0
173
     0
291
     0
 45
0.0
1001
ACAD
1000
AcDbSavedByObjectVersion
1070
     0
  0
VISUALSTYLE
  5
A79
102
{ACAD_REACTORS
330
A6C
102
}
330
A6C
100
AcDbVisualStyle
  2
Thicken
 70
    13
 71
     2
 72
     2
 73
     0
 90
        0
 40
-0.6
 41
-30.0
 62
     5
 63
     7
421
 16777215
 74
     1
 91
        4
 64
     7
 65
   257
 75
     1
175
     1
 42
1.0
 92
       12
 66
     7
 43
1.0
 76
     1
 77
     6
 78
     2
 67
     7
 79
     5
170
     0
171
     0
290
     0
174
     0
 93
        1
 44
0.0
173
     0
291
     1
 45
0.0
1001
ACAD
1000
AcDbSavedByObjectVersion
1070
     0
  0
DICTIONARYVAR
  5
B76
102
{ACAD_REACTORS
330
5E
102
}
330
5E
100
DictionaryVariables
280
     0
  1
1:1
  0
DICTIONARYVAR
  5
B75
102
{ACAD_REACTORS
330
5E
102
}
330
5E
100
DictionaryVariables
280
     0
  1
STANDARD
  0
DICTIONARYVAR
  5
B26
102
{ACAD_REACTORS
330
5E
102
}
330
5E
100
DictionaryVariables
280
     0
  1
STANDARD
  0
DICTIONARYVAR
  5
5F
102
{ACAD_REACTORS
330
5E
102
}
330
5E
100
DictionaryVariables
280
     0
  1
2
  0
DICTIONARYVAR
  5
63
102
{ACAD_REACTORS
330
5E
102
}
330
5E
100
DictionaryVariables
280
     0
  1
1
  0
DICTIONARY
  5
AF0
102
{ACAD_REACTORS
330
AE5
102
}
330
AE5
100
AcDbDictionary
281
     1
  0
XRECORD
  5
B0F
102
{ACAD_REACTORS
330
AE5
102
}
330
AE5
100
AcDbXrecord
280
     1
 90
-1023410169
  0
DICTIONARY
  5
B7D
330
A6A
100
AcDbDictionary
280
     1
281
     1
  3
ACAD_XREC_ROUNDTRIP
360
B7E
  0
DICTIONARY
  5
B7B
330
A69
100
AcDbDictionary
280
     1
281
     1
  3
ACAD_XREC_ROUNDTRIP
360
B7C
  0
DICTIONARY
  5
B7F
330
A6B
100
AcDbDictionary
280
     1
281
     1
  3
ACAD_XREC_ROUNDTRIP
360
B80
  0
DICTIONARY
  5
B78
330
A7F
100
AcDbDictionary
280
     1
281
     1
  3
ACAD_ROUNDTRIP_2008_TABLESTYLE_CELLSTYLEMAP
360
B79
  3
ACAD_XREC_ROUNDTRIP
360
B81
  0
XRECORD
  5
B7E
102
{ACAD_REACTORS
330
B7D
102
}
330
B7D
100
AcDbXrecord
280
     1
102
MATERIAL
148
0.0
149
0.0
149
0.0
 93
        0
 94
       63
282
     0
 72
     1
 77
     1
171
     1
175
     1
179
     1
273
     0
  0
XRECORD
  5
B7C
102
{ACAD_REACTORS
330
B7B
102
}
330
B7B
100
AcDbXrecord
280
     1
102
MATERIAL
148
0.0
149
0.0
149
0.0
 93
        0
 94
       63
282
     0
 72
     1
 77
     1
171
     1
175
     1
179
     1
273
     0
  0
XRECORD
  5
B80
102
{ACAD_REACTORS
330
B7F
102
}
330
B7F
100
AcDbXrecord
280
     1
102
MATERIAL
148
0.0
149
0.0
149
0.0
 93
        0
 94
       63
282
     0
 72
     1
 77
     1
171
     1
175
     1
179
     1
273
     0
  0
CELLSTYLEMAP
  5
B79
102
{ACAD_REACTORS
330
B78
102
}
330
B78
100
AcDbCellStyleMap
 90
        3
300
CELLSTYLE
  1
TABLEFORMAT_BEGIN
 90
        5
170
     1
 91
        0
 92
    32768
 62
   257
 93
        1
300
CONTENTFORMAT
  1
CONTENTFORMAT_BEGIN
 90
        0
 91
        0
 92
      512
 93
        0
300

 40
0.0
140
1.0
 94
        5
 62
     0
340
11
144
6.0
309
CONTENTFORMAT_END
171
     1
301
MARGIN
  1
CELLMARGIN_BEGIN
 40
1.5
 40
1.5
 40
1.5
 40
1.5
 40
0.18
 40
0.18
309
CELLMARGIN_END
 94
        6
 95
        1
302
GRIDFORMAT
  1
GRIDFORMAT_BEGIN
 90
        0
 91
        1
 62
     0
 92
       -2
340
0
 93
        0
 40
0.045
309
GRIDFORMAT_END
 95
        2
302
GRIDFORMAT
  1
GRIDFORMAT_BEGIN
 90
        0
 91
        1
 62
     0
 92
       -2
340
0
 93
        0
 40
0.045
309
GRIDFORMAT_END
 95
        4
302
GRIDFORMAT
  1
GRIDFORMAT_BEGIN
 90
        0
 91
        1
 62
     0
 92
       -2
340
0
 93
        0
 40
0.045
309
GRIDFORMAT_END
 95
        8
302
GRIDFORMAT
  1
GRIDFORMAT_BEGIN
 90
        0
 91
        1
 62
     0
 92
       -2
340
0
 93
        0
 40
0.045
309
GRIDFORMAT_END
 95
       16
302
GRIDFORMAT
  1
GRIDFORMAT_BEGIN
 90
        0
 91
        1
 62
     0
 92
       -2
340
0
 93
        0
 40
0.045
309
GRIDFORMAT_END
 95
       32
302
GRIDFORMAT
  1
GRIDFORMAT_BEGIN
 90
        0
 91
        1
 62
     0
 92
       -2
340
0
 93
        0
 40
0.045
309
GRIDFORMAT_END
309
TABLEFORMAT_END
  1
CELLSTYLE_BEGIN
 90
        1
 91
        1
300
_TITLE
309
CELLSTYLE_END
300
CELLSTYLE
  1
TABLEFORMAT_BEGIN
 90
        5
170
     1
 91
        0
 92
        0
 62
   257
 93
        1
300
CONTENTFORMAT
  1
CONTENTFORMAT_BEGIN
 90
        0
 91
        0
 92
      512
 93
        0
300

 40
0.0
140
1.0
 94
        5
 62
     0
340
11
144
4.5
309
CONTENTFORMAT_END
171
     1
301
MARGIN
  1
CELLMARGIN_BEGIN
 40
1.5
 40
1.5
 40
1.5
 40
1.5
 40
0.18
 40
0.18
309
CELLMARGIN_END
 94
        6
 95
        1
302
GRIDFORMAT
  1
GRIDFORMAT_BEGIN
 90
        0
 91
        1
 62
     0
 92
       -2
340
0
 93
        0
 40
0.045
309
GRIDFORMAT_END
 95
        2
302
GRIDFORMAT
  1
GRIDFORMAT_BEGIN
 90
        0
 91
        1
 62
     0
 92
       -2
340
0
 93
        0
 40
0.045
309
GRIDFORMAT_END
 95
        4
302
GRIDFORMAT
  1
GRIDFORMAT_BEGIN
 90
        0
 91
        1
 62
     0
 92
       -2
340
0
 93
        0
 40
0.045
309
GRIDFORMAT_END
 95
        8
302
GRIDFORMAT
  1
GRIDFORMAT_BEGIN
 90
        0
 91
        1
 62
     0
 92
       -2
340
0
 93
        0
 40
0.045
309
GRIDFORMAT_END
 95
       16
302
GRIDFORMAT
  1
GRIDFORMAT_BEGIN
 90
        0
 91
        1
 62
     0
 92
       -2
340
0
 93
        0
 40
0.045
309
GRIDFORMAT_END
 95
       32
302
GRIDFORMAT
  1
GRIDFORMAT_BEGIN
 90
        0
 91
        1
 62
     0
 92
       -2
340
0
 93
        0
 40
0.045
309
GRIDFORMAT_END
309
TABLEFORMAT_END
  1
CELLSTYLE_BEGIN
 90
        2
 91
        1
300
_HEADER
309
CELLSTYLE_END
300
CELLSTYLE
  1
TABLEFORMAT_BEGIN
 90
        5
170
     1
 91
        0
 92
        0
 62
   257
 93
        1
300
CONTENTFORMAT
  1
CONTENTFORMAT_BEGIN
 90
        0
 91
        0
 92
      512
 93
        0
300

 40
0.0
140
1.0
 94
        2
 62
     0
340
11
144
4.5
309
CONTENTFORMAT_END
171
     1
301
MARGIN
  1
CELLMARGIN_BEGIN
 40
1.5
 40
1.5
 40
1.5
 40
1.5
 40
0.18
 40
0.18
309
CELLMARGIN_END
 94
        6
 95
        1
302
GRIDFORMAT
  1
GRIDFORMAT_BEGIN
 90
        0
 91
        1
 62
     0
 92
       -2
340
0
 93
        0
 40
0.045
309
GRIDFORMAT_END
 95
        2
302
GRIDFORMAT
  1
GRIDFORMAT_BEGIN
 90
        0
 91
        1
 62
     0
 92
       -2
340
0
 93
        0
 40
0.045
309
GRIDFORMAT_END
 95
        4
302
GRIDFORMAT
  1
GRIDFORMAT_BEGIN
 90
        0
 91
        1
 62
     0
 92
       -2
340
0
 93
        0
 40
0.045
309
GRIDFORMAT_END
 95
        8
302
GRIDFORMAT
  1
GRIDFORMAT_BEGIN
 90
        0
 91
        1
 62
     0
 92
       -2
340
0
 93
        0
 40
0.045
309
GRIDFORMAT_END
 95
       16
302
GRIDFORMAT
  1
GRIDFORMAT_BEGIN
 90
        0
 91
        1
 62
     0
 92
       -2
340
0
 93
        0
 40
0.045
309
GRIDFORMAT_END
 95
       32
302
GRIDFORMAT
  1
GRIDFORMAT_BEGIN
 90
        0
 91
        1
 62
     0
 92
       -2
340
0
 93
        0
 40
0.045
309
GRIDFORMAT_END
309
TABLEFORMAT_END
  1
CELLSTYLE_BEGIN
 90
        3
 91
        2
300
_DATA
309
CELLSTYLE_END
  0
XRECORD
  5
B81
102
{ACAD_REACTORS
330
B78
102
}
330
B78
100
AcDbXrecord
280
     1
102
ACAD_ROUNDTRIP_PRE2007_TABLESTYLE
 90
      512
 91
        0
  1

 92
      512
 93
        0
  2

 94
      512
 95
        0
  3

  0
ENDSEC
  0
EOF
