  0
SECTION
  2
HEADER
  9
$ACADVER
  1
AC1018
  9
$ACADMAINTVER
 70
   104
  9
$DWGCODEPAGE
  3
ANSI_1252
  9
$LASTSAVEDBY
  1
User
  9
$INSBASE
 10
0.0
 20
0.0
 30
0.0
  9
$EXTMIN
 10
-10.50000000000001
 20
-92.24999999999999
 30
0.0
  9
$EXTMAX
 10
220.7528157188797
 20
29.21326255076794
 30
0.0
  9
$LIMMIN
 10
0.0
 20
0.0
  9
$LIMMAX
 10
420.0
 20
297.0
  9
$ORTHOMODE
 70
     0
  9
$REGENMODE
 70
     1
  9
$FILLMODE
 70
     1
  9
$QTEXTMODE
 70
     0
  9
$MIRRTEXT
 70
     1
  9
$LTSCALE
 40
1.0
  9
$ATTMODE
 70
     1
  9
$TEXTSIZE
 40
2.5
  9
$TRACEWID
 40
1.0
  9
$TEXTSTYLE
  7
Standard
  9
$CLAYER
  8
0
  9
$CELTYPE
  6
ByLayer
  9
$CECOLOR
 62
   256
  9
$CELTSCALE
 40
1.0
  9
$DISPSILH
 70
     1
  9
$DIMSCALE
 40
1.0
  9
$DIMASZ
 40
2.5
  9
$DIMEXO
 40
0.625
  9
$DIMDLI
 40
3.75
  9
$DIMRND
 40
0.0
  9
$DIMDLE
 40
0.0
  9
$DIMEXE
 40
1.25
  9
$DIMTP
 40
0.0
  9
$DIMTM
 40
0.0
  9
$DIMTXT
 40
2.5
  9
$DIMCEN
 40
2.5
  9
$DIMTSZ
 40
0.0
  9
$DIMTOL
 70
     0
  9
$DIMLIM
 70
     0
  9
$DIMTIH
 70
     0
  9
$DIMTOH
 70
     0
  9
$DIMSE1
 70
     0
  9
$DIMSE2
 70
     0
  9
$DIMTAD
 70
     1
  9
$DIMZIN
 70
     8
  9
$DIMBLK
  1

  9
$DIMASO
 70
     1
  9
$DIMSHO
 70
     1
  9
$DIMPOST
  1

  9
$DIMAPOST
  1

  9
$DIMALT
 70
     0
  9
$DIMALTD
 70
     3
  9
$DIMALTF
 40
0.03937007874016
  9
$DIMLFAC
 40
1.0
  9
$DIMTOFL
 70
     1
  9
$DIMTVP
 40
0.0
  9
$DIMTIX
 70
     0
  9
$DIMSOXD
 70
     0
  9
$DIMSAH
 70
     0
  9
$DIMBLK1
  1

  9
$DIMBLK2
  1

  9
$DIMSTYLE
  2
ISO-25
  9
$DIMCLRD
 70
     0
  9
$DIMCLRE
 70
     0
  9
$DIMCLRT
 70
     0
  9
$DIMTFAC
 40
1.0
  9
$DIMGAP
 40
0.625
  9
$DIMJUST
 70
     0
  9
$DIMSD1
 70
     0
  9
$DIMSD2
 70
     0
  9
$DIMTOLJ
 70
     0
  9
$DIMTZIN
 70
     8
  9
$DIMALTZ
 70
     0
  9
$DIMALTTZ
 70
     0
  9
$DIMUPT
 70
     0
  9
$DIMDEC
 70
     4
  9
$DIMTDEC
 70
     4
  9
$DIMALTU
 70
     2
  9
$DIMALTTD
 70
     3
  9
$DIMTXSTY
  7
Standard
  9
$DIMAUNIT
 70
     0
  9
$DIMADEC
 70
     2
  9
$DIMALTRND
 40
0.0
  9
$DIMAZIN
 70
     0
  9
$DIMDSEP
 70
    44
  9
$DIMATFIT
 70
     3
  9
$DIMFRAC
 70
     2
  9
$DIMLDRBLK
  1

  9
$DIMLUNIT
 70
     2
  9
$DIMLWD
 70
    -2
  9
$DIMLWE
 70
    -2
  9
$DIMTMOVE
 70
     0
  9
$LUNITS
 70
     2
  9
$LUPREC
 70
     4
  9
$SKETCHINC
 40
1.0
  9
$FILLETRAD
 40
1.0
  9
$AUNITS
 70
     0
  9
$AUPREC
 70
     2
  9
$MENU
  1
.
  9
$ELEVATION
 40
0.0
  9
$PELEVATION
 40
0.0
  9
$THICKNESS
 40
0.0
  9
$LIMCHECK
 70
     0
  9
$CHAMFERA
 40
10.0
  9
$CHAMFERB
 40
10.0
  9
$CHAMFERC
 40
20.0
  9
$CHAMFERD
 40
0.0
  9
$SKPOLY
 70
     0
  9
$TDCREATE
 40
2453556.579625648
  9
$TDUCREATE
 40
2453556.246292315
  9
$TDUPDATE
 40
2454313.745202720
  9
$TDUUPDATE
 40
2454313.411869387
  9
$TDINDWG
 40
0.0560901389
  9
$TDUSRTIMER
 40
0.0560901389
  9
$USRTIMER
 70
     1
  9
$ANGBASE
 50
0.0
  9
$ANGDIR
 70
     0
  9
$PDMODE
 70
     0
  9
$PDSIZE
 40
0.0
  9
$PLINEWID
 40
0.0
  9
$SPLFRAME
 70
     0
  9
$SPLINETYPE
 70
     6
  9
$SPLINESEGS
 70
 20000
  9
$HANDSEED
  5
3C9
  9
$SURFTAB1
 70
     6
  9
$SURFTAB2
 70
     6
  9
$SURFTYPE
 70
     6
  9
$SURFU
 70
     6
  9
$SURFV
 70
     6
  9
$UCSBASE
  2

  9
$UCSNAME
  2

  9
$UCSORG
 10
0.0
 20
0.0
 30
0.0
  9
$UCSXDIR
 10
1.0
 20
0.0
 30
0.0
  9
$UCSYDIR
 10
0.0
 20
1.0
 30
0.0
  9
$UCSORTHOREF
  2

  9
$UCSORTHOVIEW
 70
     1
  9
$UCSORGTOP
 10
0.0
 20
0.0
 30
0.0
  9
$UCSORGBOTTOM
 10
0.0
 20
0.0
 30
0.0
  9
$UCSORGLEFT
 10
0.0
 20
0.0
 30
0.0
  9
$UCSORGRIGHT
 10
0.0
 20
0.0
 30
0.0
  9
$UCSORGFRONT
 10
0.0
 20
0.0
 30
0.0
  9
$UCSORGBACK
 10
0.0
 20
0.0
 30
0.0
  9
$PUCSBASE
  2

  9
$PUCSNAME
  2

  9
$PUCSORG
 10
0.0
 20
0.0
 30
0.0
  9
$PUCSXDIR
 10
1.0
 20
0.0
 30
0.0
  9
$PUCSYDIR
 10
0.0
 20
1.0
 30
0.0
  9
$PUCSORTHOREF
  2

  9
$PUCSORTHOVIEW
 70
     0
  9
$PUCSORGTOP
 10
0.0
 20
0.0
 30
0.0
  9
$PUCSORGBOTTOM
 10
0.0
 20
0.0
 30
0.0
  9
$PUCSORGLEFT
 10
0.0
 20
0.0
 30
0.0
  9
$PUCSORGRIGHT
 10
0.0
 20
0.0
 30
0.0
  9
$PUCSORGFRONT
 10
0.0
 20
0.0
 30
0.0
  9
$PUCSORGBACK
 10
0.0
 20
0.0
 30
0.0
  9
$USERI1
 70
     0
  9
$USERI2
 70
     0
  9
$USERI3
 70
     0
  9
$USERI4
 70
     0
  9
$USERI5
 70
     0
  9
$USERR1
 40
0.0
  9
$USERR2
 40
0.0
  9
$USERR3
 40
0.0
  9
$USERR4
 40
0.0
  9
$USERR5
 40
0.0
  9
$WORLDVIEW
 70
     1
  9
$SHADEDGE
 70
     3
  9
$SHADEDIF
 70
    70
  9
$TILEMODE
 70
     1
  9
$MAXACTVP
 70
    64
  9
$PINSBASE
 10
0.0
 20
0.0
 30
0.0
  9
$PLIMCHECK
 70
     0
  9
$PEXTMIN
 10
0.0
 20
0.0
 30
0.0
  9
$PEXTMAX
 10
0.0
 20
0.0
 30
0.0
  9
$PLIMMIN
 10
0.0
 20
0.0
  9
$PLIMMAX
 10
12.0
 20
9.0
  9
$UNITMODE
 70
     0
  9
$VISRETAIN
 70
     1
  9
$PLINEGEN
 70
     0
  9
$PSLTSCALE
 70
     1
  9
$TREEDEPTH
 70
  3020
  9
$CMLSTYLE
  2
Standard
  9
$CMLJUST
 70
     0
  9
$CMLSCALE
 40
20.0
  9
$PROXYGRAPHICS
 70
     1
  9
$MEASUREMENT
 70
     1
  9
$CELWEIGHT
370
    -1
  9
$ENDCAPS
280
     0
  9
$JOINSTYLE
280
     0
  9
$LWDISPLAY
290
     0
  9
$INSUNITS
 70
     4
  9
$HYPERLINKBASE
  1

  9
$STYLESHEET
  1

  9
$XEDIT
290
     1
  9
$CEPSNTYPE
380
     0
  9
$PSTYLEMODE
290
     1
  9
$FINGERPRINTGUID
  2
{FDEAD578-A652-11D2-9A35-0060089B3A3F}
  9
$VERSIONGUID
  2
{67F72E60-54DF-49AD-814B-E3423DD2304D}
  9
$EXTNAMES
290
     1
  9
$PSVPSCALE
 40
0.0
  9
$OLESTARTUP
290
     0
  9
$SORTENTS
280
   127
  9
$INDEXCTL
280
     0
  9
$HIDETEXT
280
     1
  9
$XCLIPFRAME
290
     0
  9
$HALOGAP
280
     0
  9
$OBSCOLOR
 70
   257
  9
$OBSLTYPE
280
     0
  9
$INTERSECTIONDISPLAY
280
     0
  9
$INTERSECTIONCOLOR
 70
   257
  9
$DIMASSOC
280
     2
  9
$PROJECTNAME
  1

  0
ENDSEC
  0
SECTION
  2
CLASSES
  0
CLASS
  1
ACDBDICTIONARYWDFLT
  2
AcDbDictionaryWithDefault
  3
ObjectDBX Classes
 90
        0
 91
        1
280
     0
281
     0
  0
CLASS
  1
DICTIONARYVAR
  2
AcDbDictionaryVar
  3
ObjectDBX Classes
 90
        0
 91
        5
280
     0
281
     0
  0
CLASS
  1
DIMASSOC
  2
AcDbDimAssoc
  3
"AcDbDimAssoc|Product Desc:     AcDim ARX App For Dimension|Company:          Autodesk, Inc.|WEB Address:      www.autodesk.com"
 90
        0
 91
        3
280
     0
281
     0
  0
CLASS
  1
MATERIAL
  2
AcDbMaterial
  3
ObjectDBX Classes
 90
     1153
 91
        3
280
     0
281
     0
  0
CLASS
  1
VISUALSTYLE
  2
AcDbVisualStyle
  3
ObjectDBX Classes
 90
     4095
 91
       19
280
     0
281
     0
  0
CLASS
  1
TABLESTYLE
  2
AcDbTableStyle
  3
ObjectDBX Classes
 90
     4095
 91
        1
280
     0
281
     0
  0
CLASS
  1
SCALE
  2
AcDbScale
  3
ObjectDBX Classes
 90
     1153
 91
       33
280
     0
281
     0
  0
CLASS
  1
MLEADERSTYLE
  2
AcDbMLeaderStyle
  3
ACDB_MLEADERSTYLE_CLASS
 90
     4095
 91
        1
280
     0
281
     0
  0
CLASS
  1
SOLID_BACKGROUND
  2
AcDbSolidBackground
  3
SCENEOE
 90
     4095
 91
        1
280
     0
281
     0
  0
CLASS
  1
NPOCOLLECTION
  2
AcDbImpNonPersistentObjectsCollection
  3
ObjectDBX Classes
 90
     1153
 91
        1
280
     0
281
     0
  0
CLASS
  1
ACME_DOCUMENT
  2
AcMeDbDoc
  3
AcMeServices
 90
     1024
 91
        2
280
     0
281
     0
  0
CLASS
  1
AMGSETTINGSOBJ
  2
AmgSettingsObj
  3
"AcadM|Product Description: AutoCAD Mechanical|Company: Autodesk, Inc."
 90
     1024
 91
        2
280
     0
281
     0
  0
CLASS
  1
ACMESCOPE
  2
AcMeScope
  3
AcMeServices
 90
     1024
 91
        1
280
     0
281
     0
  0
CLASS
  1
ACMECOMMANDHISTORY
  2
AcMeCommandHistory
  3
AcMeServices
 90
     1024
 91
        1
280
     0
281
     0
  0
CLASS
  1
ACIMSYSVARMAN
  2
AcImSysVarManager
  3
AcMeServices
 90
     1024
 91
        5
280
     0
281
     0
  0
CLASS
  1
ACIMINTSYSVAR
  2
AcImIntSysVar
  3
AcMeServices
 90
     1024
 91
       27
280
     0
281
     0
  0
CLASS
  1
ACMEDRAWINGMAN
  2
AcMeDrawingMan
  3
AcMeServices
 90
     1024
 91
        1
280
     0
281
     0
  0
CLASS
  1
ACMEVIEW
  2
AcMeView
  3
AcMeServices
 90
     1024
 91
        1
280
     0
281
     0
  0
CLASS
  1
ACDBENTITYCACHE
  2
AcMeEntityCache
  3
AcMeServices
 90
     1024
 91
        1
280
     0
281
     0
  0
CLASS
  1
GSMANAGER
  2
AcMeGSManager
  3
AcMeServices
 90
     1024
 91
        1
280
     0
281
     0
  0
CLASS
  1
AMDTINTERNALREACTOR
  2
AmdtInternalReactor
  3
AcMeServices
 90
     1024
 91
        2
280
     0
281
     0
  0
CLASS
  1
ACMESTATEMGR
  2
AcMeStateMgr
  3
AcMeServices
 90
     1024
 91
        1
280
     0
281
     0
  0
CLASS
  1
ACGREFMASTER
  2
AcGrefMaster
  3
AcAttribServices
 90
     1024
 91
        1
280
     0
281
     0
  0
CLASS
  1
AM_DRAWING_MGR
  2
AcDmDwgMgr
  3
AcMechDwgViewMgmt
 90
     1024
 91
        1
280
     0
281
     0
  0
CLASS
  1
AM_DWG_DOCUMENT
  2
AcDmDwgDocument
  3
AcMechDwgViewMgmt
 90
     1024
 91
        1
280
     0
281
     0
  0
CLASS
  1
AM_DWG_SHEET
  2
AcDmSheet
  3
AcMechDwgViewMgmt
 90
     1024
 91
        2
280
     0
281
     0
  0
CLASS
  1
AM_VIEWDIMPARMAP
  2
AcDmViewDimParMap
  3
AcMechDwgViewMgmt
 90
     1024
 91
        2
280
     0
281
     0
  0
CLASS
  1
ACIMREALSYSVAR
  2
AcImRealSysVar
  3
AcMeServices
 90
     1024
 91
        1
280
     0
281
     0
  0
CLASS
  1
AM_DWGMGR_NAME
  2
AcDmDwgMgrName
  3
AcMechDwgViewMgmt
 90
     1024
 91
        1
280
     0
281
     0
  0
CLASS
  1
ACME_DATABASE
  2
AcMeDbDatabase
  3
AcMeServices
 90
     1024
 91
        1
280
     0
281
     0
  0
CLASS
  1
ACRFINSADJUSTERMGR
  2
AcRfInsAdjusterMgr
  3
AcMeServices
 90
     1024
 91
        1
280
     0
281
     0
  0
CLASS
  1
ACGREFACADMASTER
  2
AcGrefacadMaster
  3
AcGrefServices
 90
     1024
 91
        1
280
     0
281
     0
  0
CLASS
  1
AMDTMENUSTATEMGR
  2
AmdtMenuStateMgr
  3
McadcomServices
 90
     1024
 91
        1
280
     0
281
     0
  0
CLASS
  1
AMDTMCOMMENUSTATE
  2
AmdtMcomMenuState
  3
McadcomServices
 90
     1024
 91
        1
280
     0
281
     0
  0
CLASS
  1
AMIMASTER
  2
AmiMaster
  3
AmiServices
 90
     1024
 91
        1
280
     0
281
     0
  0
CLASS
  1
MAPIAMMOUDLE
  2
MApiAmModule
  3
MApiAmServices
 90
     1024
 91
        1
280
     0
281
     0
  0
CLASS
  1
ACIMSTRSYSVAR
  2
AcImStrSysVar
  3
AcMeServices
 90
     1024
 91
        5
280
     0
281
     0
  0
CLASS
  1
AMDTADMENUSTATE
  2
AmdtAdMenuState
  3
DesignerServices
 90
     1024
 91
        1
280
     0
281
     0
  0
CLASS
  1
ADAPPL
  2
AcAdAppl
  3
DesignerServices
 90
     1024
 91
        1
280
     0
281
     0
  0
CLASS
  1
DEPMGR
  2
AcAdDepMgr
  3
DesignerServices
 90
     1024
 91
        1
280
     0
281
     0
  0
CLASS
  1
PARAMMGR
  2
AcAdParamMgr
  3
DesignerServices
 90
     1024
 91
        1
280
     0
281
     0
  0
CLASS
  1
PARAMSCOPE
  2
AcAdParamScope
  3
DesignerServices
 90
     1024
 91
        1
280
     0
281
     0
  0
CLASS
  1
NAMEDAPPL
  2
AcAdNamedAppl
  3
DesignerServices
 90
     1024
 91
        1
280
     0
281
     0
  0
CLASS
  1
AMDTDMMENUSTATE
  2
AmdtDmMenuState
  3
AcMechDwgViewMgmt
 90
     1024
 91
        1
280
     0
281
     0
  0
CLASS
  1
AMDTAMMENUSTATE
  2
AmdtAmMenuState
  3
DesignerAssemblies
 90
     1024
 91
        1
280
     0
281
     0
  0
CLASS
  1
ACAMPROJECT
  2
AcAmProject
  3
DesignerAssemblies
 90
     1024
 91
        1
280
     0
281
     0
  0
CLASS
  1
ACAMGRCOMPDEF
  2
AcAmGrCompDef
  3
DesignerAssemblies
 90
     1024
 91
        1
280
     0
281
     0
  0
CLASS
  1
ACCMCONTEXT
  2
AcCmContext
  3
DesignerAssemblies
 90
     1024
 91
        1
280
     0
281
     0
  0
CLASS
  1
ACAMCOMPDEF
  2
AcAmCompDef
  3
DesignerAssemblies
 90
     1024
 91
        1
280
     0
281
     0
  0
CLASS
  1
ACAMCOMPDEFMGR
  2
AcAmCompDefMgr
  3
DesignerAssemblies
 90
     1024
 91
        1
280
     0
281
     0
  0
CLASS
  1
AMCONTEXTMGR
  2
AcAmContextMgr
  3
DesignerAssemblies
 90
     1024
 91
        1
280
     0
281
     0
  0
CLASS
  1
ACAMCONTEXTMODELER
  2
AcAmContextModeler
  3
DesignerAssemblies
 90
     1024
 91
        1
280
     0
281
     0
  0
CLASS
  1
ACMDATADICTIONARY
  2
AcmDataDictionary
  3
"AcmSymBB|Product Description: AutoCAD Mechanical|Company: Autodesk, Inc."
 90
     1024
 91
        1
280
     0
281
     0
  0
CLASS
  1
CATALOGSTATE
  2
AcAmCatalogState
  3
DesignerAssemblies
 90
     1024
 91
        1
280
     0
281
     0
  0
CLASS
  1
ACAMGRCOMPDEFSET
  2
AcAmGrCompDefSet
  3
DesignerAssemblies
 90
     1024
 91
        1
280
     0
281
     0
  0
CLASS
  1
AMDTBROWSERDBTAB
  2
AmdtBrowserDbTab
  3
McadcomServices
 90
     1024
 91
        1
280
     0
281
     0
  0
CLASS
  1
CBROWSERAPPOBJECT
  2
CBrowserAppObject
  3
McadcomServices
 90
     1024
 91
        3
280
     0
281
     0
  0
CLASS
  1
DM_PLACEHOLDER
  2
AcDmSelsetPlaceholder
  3
AcMechDwgViewMgmt
 90
     1024
 91
        1
280
     0
281
     0
  0
CLASS
  1
ACMSTANDARDISO
  2
AcmStandardISO
  3
"Amdt_StdImp|Product Description: AutoCAD Mechanical|Company: Autodesk, Inc."
 90
     1024
 91
        1
280
     0
281
     0
  0
CLASS
  1
AMGOBJPROPCFG
  2
AmgObjPropCfg
  3
"AmgLay|Product Description: AutoCAD Mechanical|Company: Autodesk, Inc."
 90
     1025
 91
        1
280
     0
281
     0
  0
CLASS
  1
AMDTEDGESTANDARDISO13715
  2
AmdtEdgeStdISO13715
  3
"Amdt_StdImp|Product Description: AutoCAD Mechanical|Company: Autodesk, Inc."
 90
     1024
 91
        1
280
     0
281
     0
  0
CLASS
  1
ACMSURFSTANDARDISO2002
  2
AcmSurfTextStdISO2002
  3
"Amdt_StdImp|Product Description: AutoCAD Mechanical|Company: Autodesk, Inc."
 90
     1024
 91
        1
280
     0
281
     0
  0
CLASS
  1
ACMFCFSTANDARDISO
  2
AcmFCFStdISO
  3
"Amdt_StdImp|Product Description: AutoCAD Mechanical|Company: Autodesk, Inc."
 90
     1024
 91
        1
280
     0
281
     0
  0
CLASS
  1
ACMWELDSTANDARDISO
  2
AcmWeldingStdISO
  3
"Amdt_StdImp|Product Description: AutoCAD Mechanical|Company: Autodesk, Inc."
 90
     1024
 91
        1
280
     0
281
     0
  0
CLASS
  1
ACMIDSTANDARDISO
  2
AcmIdStdISO
  3
"Amdt_StdImp|Product Description: AutoCAD Mechanical|Company: Autodesk, Inc."
 90
     1024
 91
        1
280
     0
281
     0
  0
CLASS
  1
ACMDATUMSTANDARDISO
  2
AcmDatumStdISO
  3
"Amdt_StdImp|Product Description: AutoCAD Mechanical|Company: Autodesk, Inc."
 90
     1024
 91
        1
280
     0
281
     0
  0
CLASS
  1
ACMBOMSTANDARDISO
  2
AcmBOMStdISO
  3
"Amdt_StdImp|Product Description: AutoCAD Mechanical|Company: Autodesk, Inc."
 90
     1024
 91
        1
280
     0
281
     0
  0
CLASS
  1
ACMDETAILSTANDARDISO
  2
AmdtDetailSymStdISO
  3
"Amdt_StdImp|Product Description: AutoCAD Mechanical|Company: Autodesk, Inc."
 90
     1024
 91
        1
280
     0
281
     0
  0
CLASS
  1
ACMSECTIONSTANDARDISO2001
  2
AmdtSectionSymStdISO2001
  3
"Amdt_StdImp|Product Description: AutoCAD Mechanical|Company: Autodesk, Inc."
 90
     1024
 91
        1
280
     0
281
     0
  0
CLASS
  1
ACMCENTERLINESTANDARDISO
  2
AmdtCenterLineStdISO
  3
"Amdt_StdImp|Product Description: AutoCAD Mechanical|Company: Autodesk, Inc."
 90
     1024
 91
        1
280
     0
281
     0
  0
CLASS
  1
ACMTHREADLINESTANDARDISO
  2
AmdtThreadLineStdISO
  3
"Amdt_StdImp|Product Description: AutoCAD Mechanical|Company: Autodesk, Inc."
 90
     1024
 91
        1
280
     0
281
     0
  0
CLASS
  1
ACMNOTESTANDARDISO
  2
AmdtNoteStdISO
  3
"Amdt_StdImp|Product Description: AutoCAD Mechanical|Company: Autodesk, Inc."
 90
     1024
 91
        1
280
     0
281
     0
  0
CLASS
  1
ACMTAPERSTANDARDISO
  2
AcmTaperStdISO
  3
"Amdt_StdImp|Product Description: AutoCAD Mechanical|Company: Autodesk, Inc."
 90
     1024
 91
        1
280
     0
281
     0
  0
CLASS
  1
ACMANOOTATIONVIEWSTANDARDISO
  2
AmdtAnViewStdISO
  3
"Amdt_StdImp|Product Description: AutoCAD Mechanical|Company: Autodesk, Inc."
 90
     1024
 91
        1
280
     0
281
     0
  0
CLASS
  1
AMDTNOTETEMPLATEDB
  2
AmdtNoteTemplateDB
  3
AcmSymBB|Product Description: AutoCAD Mechanical|Company: Autodesk, Inc.
 90
     1024
 91
        6
280
     0
281
     0
  0
CLASS
  1
ACAMGLAYSTD
  2
AcAmgLayStd
  3
"AmgLay|Product Description: AutoCAD Mechanical|Company: Autodesk, Inc."
 90
     1024
 91
        1
280
     0
281
     0
  0
CLASS
  1
ACAMGDIMSTD
  2
AcAmgDimStd
  3
"AmgDim|Product Description: AutoCAD Mechanical|Company: Autodesk, Inc."
 90
     1024
 91
        1
280
     0
281
     0
  0
CLASS
  1
ACAMGHOLECHARTSTDISO
  2
AcAmgHoleChartStdISO
  3
AmgDim|Product Description: AutoCAD Mechanical|Company: Autodesk, Inc.
 90
     1024
 91
        1
280
     0
281
     0
  0
CLASS
  1
ACAMGTITLESTD
  2
AcAmgTitleStd
  3
"AmgTitle|Product Description: AutoCAD Mechanical|Company: Autodesk, Inc."
 90
     4095
 91
        1
280
     0
281
     0
  0
CLASS
  1
ACAMGFILTERDAT
  2
AcAmgFilterDat
  3
"AcadM|Product Description: AutoCAD Mechanical|Company: Autodesk, Inc."
 90
     1024
 91
        6
280
     0
281
     0
  0
CLASS
  1
CELLSTYLEMAP
  2
AcDbCellStyleMap
  3
ObjectDBX Classes
 90
     1152
 91
        1
280
     0
281
     0
  0
ENDSEC
  0
SECTION
  2
TABLES
  0
TABLE
  2
VPORT
  5
8
330
0
100
AcDbSymbolTable
 70
     1
  0
VPORT
  5
2C3
330
8
100
AcDbSymbolTableRecord
100
AcDbViewportTableRecord
  2
*Active
 70
     0
 10
0.0
 20
0.0
 11
1.0
 21
1.0
 12
105.1264078594398
 22
-23.93370806553098
 13
0.0
 23
0.0
 14
10.0
 24
10.0
 15
10.0
 25
10.0
 16
0.0
 26
0.0
 36
1.0
 17
0.0
 27
0.0
 37
0.0
 40
155.2678395413817
 41
1.499364675984752
 42
50.0
 43
0.0
 44
0.0
 50
0.0
 51
0.0
 71
     0
 72
 20000
 73
     1
 74
     3
 75
     0
 76
     0
 77
     0
 78
     0
281
     1
 65
     1
110
0.0
120
0.0
130
0.0
111
1.0
121
0.0
131
0.0
112
0.0
122
1.0
132
0.0
 79
     0
146
0.0
  0
ENDTAB
  0
TABLE
  2
LTYPE
  5
5
330
0
100
AcDbSymbolTable
 70
     7
  0
LTYPE
  5
14
330
5
100
AcDbSymbolTableRecord
100
AcDbLinetypeTableRecord
  2
ByBlock
 70
     0
  3

 72
    65
 73
     0
 40
0.0
  0
LTYPE
  5
15
330
5
100
AcDbSymbolTableRecord
100
AcDbLinetypeTableRecord
  2
ByLayer
 70
     0
  3

 72
    65
 73
     0
 40
0.0
  0
LTYPE
  5
16
330
5
100
AcDbSymbolTableRecord
100
AcDbLinetypeTableRecord
  2
Continuous
 70
     0
  3
Solid line
 72
    65
 73
     0
 40
0.0
  0
LTYPE
  5
352
330
5
100
AcDbSymbolTableRecord
100
AcDbLinetypeTableRecord
  2
HIDDEN
 70
     0
  3
Hidden __ __ __ __ __ __ __ __ __ __ __ __ __ _
 72
    65
 73
     2
 40
9.524999999999998
 49
6.349999999999999
 74
     0
 49
-3.174999999999999
 74
     0
  0
LTYPE
  5
353
330
5
100
AcDbSymbolTableRecord
100
AcDbLinetypeTableRecord
  2
PHANTOM2
 70
     0
  3
Phantom (.5x) ___ _ _ ___ _ _ ___ _ _ ___ _ _
 72
    65
 73
     6
 40
31.75
 49
15.875
 74
     0
 49
-3.174999999999999
 74
     0
 49
3.174999999999999
 74
     0
 49
-3.174999999999999
 74
     0
 49
3.174999999999999
 74
     0
 49
-3.174999999999999
 74
     0
  0
LTYPE
  5
354
330
5
100
AcDbSymbolTableRecord
100
AcDbLinetypeTableRecord
  2
CENTER
 70
     0
  3
Center ____ _ ____ _ ____ _ ____ _ ____ _ ____
 72
    65
 73
     4
 40
50.8
 49
31.75
 74
     0
 49
-6.349999999999999
 74
     0
 49
6.349999999999999
 74
     0
 49
-6.349999999999999
 74
     0
  0
LTYPE
  5
399
330
5
100
AcDbSymbolTableRecord
100
AcDbLinetypeTableRecord
  2
ACISOWELD
 70
     0
  3
_ _ _ _ _
 72
    65
 73
     2
 40
2.0
 49
2.0
 74
     0
 49
-1.0
 74
     0
  0
LTYPE
  5
39A
330
5
100
AcDbSymbolTableRecord
100
AcDbLinetypeTableRecord
  2
ACISOTGB
 70
     0
  3
__ . . __ . .
 72
    65
 73
     6
 40
9.0
 49
4.0
 74
     0
 49
-1.0
 74
     0
 49
1.0
 74
     0
 49
-1.0
 74
     0
 49
1.0
 74
     0
 49
-1.0
 74
     0
  0
LTYPE
  5
39B
330
5
100
AcDbSymbolTableRecord
100
AcDbLinetypeTableRecord
  2
ACISOTGL
 70
     0
  3
_ _ _ _ _
 72
    65
 73
     2
 40
3.0
 49
2.0
 74
     0
 49
-1.0
 74
     0
  0
ENDTAB
  0
TABLE
  2
LAYER
  5
2
330
0
100
AcDbSymbolTable
 70
     2
  0
LAYER
  5
10
102
{ACAD_XDICTIONARY
360
3BB
102
}
330
2
100
AcDbSymbolTableRecord
100
AcDbLayerTableRecord
  2
0
 70
     0
 62
     7
  6
Continuous
370
    -3
390
F
  0
LAYER
  5
13C
330
2
100
AcDbSymbolTableRecord
100
AcDbLayerTableRecord
  2
Defpoints
 70
     0
 62
     7
  6
Continuous
290
     0
370
    -3
390
F
  0
ENDTAB
  0
TABLE
  2
STYLE
  5
3
330
0
100
AcDbSymbolTable
 70
     3
  0
STYLE
  5
11
330
3
100
AcDbSymbolTableRecord
100
AcDbTextStyleTableRecord
  2
Standard
 70
     0
 40
0.0
 41
1.0
 50
0.0
 71
     0
 42
2.5
  3
txt
  4

  0
STYLE
  5
389
330
3
100
AcDbSymbolTableRecord
100
AcDbTextStyleTableRecord
  2
ACISOTS
 70
     0
 40
1.0
 41
1.0
 50
0.0
 71
     0
 42
2.5
  3
isocp.shx
  4

  0
STYLE
  5
398
330
3
100
AcDbSymbolTableRecord
100
AcDbTextStyleTableRecord
  2
ACISOGDT
 70
     0
 40
0.0
 41
1.0
 50
0.0
 71
     0
 42
2.5
  3
amgdt.shx
  4

  0
ENDTAB
  0
TABLE
  2
VIEW
  5
6
330
0
100
AcDbSymbolTable
 70
     0
  0
ENDTAB
  0
TABLE
  2
UCS
  5
7
330
0
100
AcDbSymbolTable
 70
     0
  0
ENDTAB
  0
TABLE
  2
APPID
  5
9
330
0
100
AcDbSymbolTable
 70
    10
  0
APPID
  5
12
330
9
100
AcDbSymbolTableRecord
100
AcDbRegAppTableRecord
  2
ACAD
 70
     0
  0
APPID
  5
316
330
9
100
AcDbSymbolTableRecord
100
AcDbRegAppTableRecord
  2
ACAD_MLEADERVER
 70
     0
  0
APPID
  5
323
330
9
100
AcDbSymbolTableRecord
100
AcDbRegAppTableRecord
  2
MCAD_NO_VIS
 70
     0
  0
APPID
  5
324
330
9
100
AcDbSymbolTableRecord
100
AcDbRegAppTableRecord
  2
ACAD_TEMP_GRAPHIC
 70
     0
  0
APPID
  5
356
330
9
100
AcDbSymbolTableRecord
100
AcDbRegAppTableRecord
  2
AD_DRAW
 70
     0
  0
APPID
  5
359
330
9
100
AcDbSymbolTableRecord
100
AcDbRegAppTableRecord
  2
ACATTRIBSERVICES
 70
     0
  0
APPID
  5
37A
330
9
100
AcDbSymbolTableRecord
100
AcDbRegAppTableRecord
  2
DESIGNERASSEMBLIES
 70
     0
  0
APPID
  5
380
330
9
100
AcDbSymbolTableRecord
100
AcDbRegAppTableRecord
  2
ACADM_DIM_EDIT
 70
     0
  0
APPID
  5
381
330
9
100
AcDbSymbolTableRecord
100
AcDbRegAppTableRecord
  2
AMDT_DM_ADJ
 70
     0
  0
APPID
  5
3C8
330
9
100
AcDbSymbolTableRecord
100
AcDbRegAppTableRecord
  2
ACAD_DSTYLE_DIMARC_LENGTH_SYMBOL
 70
     0
  0
ENDTAB
  0
TABLE
  2
DIMSTYLE
  5
A
330
0
100
AcDbSymbolTable
 70
     8
100
AcDbDimStyleTable
 71
     1
340
27
  0
DIMSTYLE
105
27
102
{ACAD_REACTORS
330
1F6
330
20E
330
226
102
}
330
A
100
AcDbSymbolTableRecord
100
AcDbDimStyleTableRecord
  2
ISO-25
 70
     0
 41
2.5
 42
0.625
 43
3.75
 44
1.25
 73
     0
 74
     0
 77
     1
 78
     8
140
2.5
141
2.5
143
0.03937007874016
147
0.625
171
     3
172
     1
271
     2
272
     2
274
     3
278
    44
283
     0
284
     8
340
11
  0
DIMSTYLE
105
3A6
330
A
100
AcDbSymbolTableRecord
100
AcDbDimStyleTableRecord
  2
AM_ISO
 70
     0
  4
"
 41
2.5
 42
1.0
 43
10.0
 44
1.0
 47
0.1
 48
0.1
 73
     0
 74
     0
 77
     1
 78
     8
 79
     2
140
3.5
141
0.0
143
0.0393701
146
0.71
147
1.5
172
     1
176
   256
177
   256
178
     2
271
     2
272
     3
274
     4
283
     0
284
     8
340
11
371
    -1
372
    -1
1001
ACAD_DSTYLE_DIMARC_LENGTH_SYMBOL
1070
   379
1070
     1
  0
DIMSTYLE
105
3A7
330
A
100
AcDbSymbolTableRecord
100
AcDbDimStyleTableRecord
  2
AM_ISO$3
 70
     0
  4
"
 41
2.5
 42
1.0
 43
10.0
 44
1.0
 47
0.1
 48
0.1
 73
     0
 77
     1
 78
     8
 79
     2
140
3.5
141
0.0
143
0.0393701
146
0.71
147
1.5
176
   256
177
   256
178
     2
271
     2
272
     3
274
     4
283
     0
284
     8
288
     1
289
     0
340
11
371
    -1
372
    -1
1001
ACAD_DSTYLE_DIMARC_LENGTH_SYMBOL
1070
   379
1070
     1
  0
DIMSTYLE
105
3A8
330
A
100
AcDbSymbolTableRecord
100
AcDbDimStyleTableRecord
  2
AM_ISO$4
 70
     0
  4
"
 41
2.5
 42
1.0
 43
10.0
 44
1.0
 47
0.1
 48
0.1
 73
     0
 77
     1
 78
     8
 79
     2
140
3.5
141
0.0
143
0.0393701
146
0.71
147
1.5
176
   256
177
   256
178
     2
271
     2
272
     3
274
     4
283
     0
284
     8
288
     1
289
     0
340
11
371
    -1
372
    -1
1001
ACAD_DSTYLE_DIMARC_LENGTH_SYMBOL
1070
   379
1070
     1
  0
DIMSTYLE
105
3A9
330
A
100
AcDbSymbolTableRecord
100
AcDbDimStyleTableRecord
  2
AM_ISO$6
 70
     0
  4
"
 41
2.5
 42
1.0
 43
10.0
 44
1.0
 47
0.1
 48
0.1
 73
     0
 74
     0
 78
     8
 79
     2
140
3.5
141
0.0
143
0.0393701
146
0.71
147
1.5
172
     1
176
   256
177
   256
178
     2
271
     2
272
     3
274
     4
283
     0
284
     8
340
11
371
    -1
372
    -1
1001
ACAD_DSTYLE_DIMARC_LENGTH_SYMBOL
1070
   379
1070
     1
  0
DIMSTYLE
105
3AA
330
A
100
AcDbSymbolTableRecord
100
AcDbDimStyleTableRecord
  2
AM_ISO$7
 70
     0
  4
"
 41
2.5
 42
1.0
 43
10.0
 44
1.0
 47
0.1
 48
0.1
 73
     0
 74
     0
 77
     1
 78
     8
 79
     2
140
5.0
141
0.0
143
0.0393701
146
0.71
147
1.5
172
     1
176
   256
177
   256
178
     2
271
     2
272
     3
274
     4
283
     0
284
     8
340
11
371
    -1
372
    -1
1001
ACAD_DSTYLE_DIMARC_LENGTH_SYMBOL
1070
   379
1070
     1
  0
DIMSTYLE
105
3AB
330
A
100
AcDbSymbolTableRecord
100
AcDbDimStyleTableRecord
  2
AM_ISO$SF
 70
     0
  4
"
 41
2.5
 42
1.0
 43
10.0
 44
1.0
 47
0.1
 48
0.1
 73
     0
 74
     0
 75
     1
 76
     1
 77
     1
 78
     8
 79
     2
140
3.5
141
0.0
143
0.0393701
146
0.71
147
1.5
172
     1
176
   256
177
   256
178
     2
271
     2
272
     3
274
     4
283
     0
284
     8
340
11
371
    -1
372
    -1
1001
ACAD_DSTYLE_DIMARC_LENGTH_SYMBOL
1070
   379
1070
     1
  0
DIMSTYLE
105
3B0
330
A
100
AcDbSymbolTableRecord
100
AcDbDimStyleTableRecord
  2
AM_ISO$SH
 70
     0
  4
"
 41
2.5
 42
1.0
 43
10.0
 44
1.0
 47
0.1
 48
0.1
 73
     0
 74
     0
 75
     1
 76
     1
 77
     1
 78
     8
 79
     2
140
3.5
141
0.0
143
0.0393701
144
2.0
146
0.71
147
1.5
172
     1
173
     1
176
   256
177
   256
178
     2
271
     2
272
     3
274
     4
283
     0
284
     8
340
11
343
3AC
371
    -1
372
    -1
1001
ACAD_DSTYLE_DIMARC_LENGTH_SYMBOL
1070
   379
1070
     1
  0
ENDTAB
  0
TABLE
  2
BLOCK_RECORD
  5
1
330
0
100
AcDbSymbolTable
 70
     6
  0
BLOCK_RECORD
  5
1F
330
1
100
AcDbSymbolTableRecord
100
AcDbBlockTableRecord
  2
*Model_Space
340
22
  0
BLOCK_RECORD
  5
50
330
1
100
AcDbSymbolTableRecord
100
AcDbBlockTableRecord
  2
*Paper_Space
340
51
  0
BLOCK_RECORD
  5
55
330
1
100
AcDbSymbolTableRecord
100
AcDbBlockTableRecord
  2
*Paper_Space0
340
56
  0
BLOCK_RECORD
  5
1F7
330
1
100
AcDbSymbolTableRecord
100
AcDbBlockTableRecord
  2
*D1
340
0
  0
BLOCK_RECORD
  5
20F
330
1
100
AcDbSymbolTableRecord
100
AcDbBlockTableRecord
  2
*D2
340
0
  0
BLOCK_RECORD
  5
227
330
1
100
AcDbSymbolTableRecord
100
AcDbBlockTableRecord
  2
*D3
340
0
  0
BLOCK_RECORD
  5
3AC
330
1
100
AcDbSymbolTableRecord
100
AcDbBlockTableRecord
  2
GENAXEH
340
0
  0
ENDTAB
  0
ENDSEC
  0
SECTION
  2
BLOCKS
  0
BLOCK
  5
20
330
1F
100
AcDbEntity
  8
0
100
AcDbBlockBegin
  2
*Model_Space
 70
     0
 10
0.0
 20
0.0
 30
0.0
  3
*Model_Space
  1

  0
ENDBLK
  5
21
330
1F
100
AcDbEntity
  8
0
100
AcDbBlockEnd
  0
BLOCK
  5
52
330
50
100
AcDbEntity
 67
     1
  8
0
100
AcDbBlockBegin
  2
*Paper_Space
 70
     0
 10
0.0
 20
0.0
 30
0.0
  3
*Paper_Space
  1

  0
ENDBLK
  5
53
330
50
100
AcDbEntity
 67
     1
  8
0
100
AcDbBlockEnd
  0
BLOCK
  5
57
330
55
100
AcDbEntity
 67
     1
  8
0
100
AcDbBlockBegin
  2
*Paper_Space0
 70
     0
 10
0.0
 20
0.0
 30
0.0
  3
*Paper_Space0
  1

  0
ENDBLK
  5
58
330
55
100
AcDbEntity
 67
     1
  8
0
100
AcDbBlockEnd
  0
BLOCK
  5
201
330
1F7
100
AcDbEntity
  8
0
100
AcDbBlockBegin
  2
*D1
 70
     1
 10
0.0
 20
0.0
 30
0.0
  3
*D1
  1

  0
LINE
  5
2B4
330
1F7
100
AcDbEntity
  8
0
 62
     0
370
    -2
100
AcDbLine
 10
195.125
 20
-0.0000000000000359
 30
0.0
 11
220.7528157188797
 21
-0.0000000000000432
 31
0.0
  0
LINE
  5
2B5
330
1F7
100
AcDbEntity
  8
0
 62
     0
370
    -2
100
AcDbLine
 10
195.125
 20
-40.00000000000003
 30
0.0
 11
220.7528157188797
 21
-40.00000000000004
 31
0.0
  0
LINE
  5
2B6
330
1F7
100
AcDbEntity
  8
0
 62
     0
370
    -2
100
AcDbLine
 10
219.5028157188797
 20
-2.500000000000043
 30
0.0
 11
219.5028157188797
 21
-37.50000000000004
 31
0.0
  0
SOLID
  5
2B7
330
1F7
100
AcDbEntity
  8
0
 62
     0
100
AcDbTrace
 10
219.086149052213
 20
-2.500000000000043
 30
0.0
 11
219.9194823855463
 21
-2.500000000000043
 31
0.0
 12
219.5028157188797
 22
-0.0000000000000428
 32
0.0
 13
219.5028157188797
 23
-0.0000000000000428
 33
0.0
  0
SOLID
  5
2B8
330
1F7
100
AcDbEntity
  8
0
 62
     0
100
AcDbTrace
 10
219.086149052213
 20
-37.50000000000004
 30
0.0
 11
219.9194823855463
 21
-37.50000000000004
 31
0.0
 12
219.5028157188797
 22
-40.00000000000004
 32
0.0
 13
219.5028157188797
 23
-40.00000000000004
 33
0.0
  0
MTEXT
  5
2B9
330
1F7
100
AcDbEntity
  8
0
 62
     0
100
AcDbMText
 10
213.8778157188797
 20
-20.02001969069261
 30
0.0
 40
10.0
 41
0.0
 71
     5
 72
     1
  1
40
 11
0.0000000000000001
 21
1.0
 31
0.0
 73
     1
 44
1.0
  0
POINT
  5
2BA
330
1F7
100
AcDbEntity
  8
Defpoints
 62
     0
100
AcDbPoint
 10
194.5
 20
-0.0000000000000357
 30
0.0
  0
POINT
  5
2BB
330
1F7
100
AcDbEntity
  8
Defpoints
 62
     0
100
AcDbPoint
 10
194.5
 20
-40.00000000000003
 30
0.0
  0
POINT
  5
2BC
330
1F7
100
AcDbEntity
  8
Defpoints
 62
     0
100
AcDbPoint
 10
219.5028157188797
 20
-40.00000000000004
 30
0.0
  0
ENDBLK
  5
202
330
1F7
100
AcDbEntity
  8
0
100
AcDbBlockEnd
  0
BLOCK
  5
219
330
20F
100
AcDbEntity
  8
0
100
AcDbBlockBegin
  2
*D2
 70
     1
 10
0.0
 20
0.0
 30
0.0
  3
*D2
  1

  0
LINE
  5
2AB
330
20F
100
AcDbEntity
  8
0
 62
     0
370
    -2
100
AcDbLine
 10
195.125
 20
-70.00000000000004
 30
0.0
 11
215.0572276323857
 21
-70.00000000000004
 31
0.0
  0
LINE
  5
2AC
330
20F
100
AcDbEntity
  8
0
 62
     0
370
    -2
100
AcDbLine
 10
195.1249999999999
 20
-90.00000000000005
 30
0.0
 11
215.0572276323857
 21
-90.00000000000005
 31
0.0
  0
LINE
  5
2AD
330
20F
100
AcDbEntity
  8
0
 62
     0
370
    -2
100
AcDbLine
 10
213.8072276323857
 20
-72.50000000000004
 30
0.0
 11
213.8072276323857
 21
-87.50000000000005
 31
0.0
  0
SOLID
  5
2AE
330
20F
100
AcDbEntity
  8
0
 62
     0
100
AcDbTrace
 10
213.3905609657191
 20
-72.50000000000004
 30
0.0
 11
214.2238942990524
 21
-72.50000000000004
 31
0.0
 12
213.8072276323857
 22
-70.00000000000004
 32
0.0
 13
213.8072276323857
 23
-70.00000000000004
 33
0.0
  0
SOLID
  5
2AF
330
20F
100
AcDbEntity
  8
0
 62
     0
100
AcDbTrace
 10
213.3905609657191
 20
-87.50000000000005
 30
0.0
 11
214.2238942990524
 21
-87.50000000000005
 31
0.0
 12
213.8072276323857
 22
-90.00000000000005
 32
0.0
 13
213.8072276323857
 23
-90.00000000000005
 33
0.0
  0
MTEXT
  5
2B0
330
20F
100
AcDbEntity
  8
0
 62
     0
100
AcDbMText
 10
208.1822276323858
 20
-79.94690547628795
 30
0.0
 40
10.0
 41
0.0
 71
     5
 72
     1
  1
20
 11
0.0000000000000001
 21
1.0
 31
0.0
 73
     1
 44
1.0
  0
POINT
  5
2B1
330
20F
100
AcDbEntity
  8
Defpoints
 62
     0
100
AcDbPoint
 10
194.5
 20
-70.00000000000004
 30
0.0
  0
POINT
  5
2B2
330
20F
100
AcDbEntity
  8
Defpoints
 62
     0
100
AcDbPoint
 10
194.5
 20
-90.00000000000005
 30
0.0
  0
POINT
  5
2B3
330
20F
100
AcDbEntity
  8
Defpoints
 62
     0
100
AcDbPoint
 10
213.8072276323857
 20
-90.00000000000005
 30
0.0
  0
ENDBLK
  5
21A
330
20F
100
AcDbEntity
  8
0
100
AcDbBlockEnd
  0
BLOCK
  5
231
330
227
100
AcDbEntity
  8
0
100
AcDbBlockBegin
  2
*D3
 70
     1
 10
0.0
 20
0.0
 30
0.0
  3
*D3
  1

  0
LINE
  5
285
330
227
100
AcDbEntity
  8
0
 62
     0
370
    -2
100
AcDbLine
 10
194.5
 20
0.6249999999999643
 30
0.0
 11
194.5
 21
18.17159588410127
 31
0.0
  0
LINE
  5
286
330
227
100
AcDbEntity
  8
0
 62
     0
370
    -2
100
AcDbLine
 10
0.0
 20
0.625
 30
0.0
 11
0.0000000000000011
 21
18.17159588410127
 31
0.0
  0
LINE
  5
287
330
227
100
AcDbEntity
  8
0
 62
     0
370
    -2
100
AcDbLine
 10
192.0
 20
16.92159588410127
 30
0.0
 11
2.5
 21
16.92159588410127
 31
0.0
  0
SOLID
  5
288
330
227
100
AcDbEntity
  8
0
 62
     0
100
AcDbTrace
 10
192.0
 20
17.33826255076794
 30
0.0
 11
192.0
 21
16.50492921743461
 31
0.0
 12
194.5
 22
16.92159588410127
 32
0.0
 13
194.5
 23
16.92159588410127
 33
0.0
  0
SOLID
  5
289
330
227
100
AcDbEntity
  8
0
 62
     0
100
AcDbTrace
 10
2.5
 20
17.33826255076794
 30
0.0
 11
2.5
 21
16.50492921743461
 31
0.0
 12
0.000000000000001
 22
16.92159588410127
 32
0.0
 13
0.000000000000001
 23
16.92159588410127
 33
0.0
  0
MTEXT
  5
28A
330
227
100
AcDbEntity
  8
0
 62
     0
100
AcDbMText
 10
97.35507340150377
 20
23.37992921743461
 30
0.0
 40
10.0
 41
0.0
 71
     5
 72
     1
  1
194,5
 73
     1
 44
1.0
  0
POINT
  5
28B
330
227
100
AcDbEntity
  8
Defpoints
 62
     0
100
AcDbPoint
 10
194.5
 20
-0.0000000000000357
 30
0.0
  0
POINT
  5
28C
330
227
100
AcDbEntity
  8
Defpoints
 62
     0
100
AcDbPoint
 10
0.0
 20
0.0
 30
0.0
  0
POINT
  5
28D
330
227
100
AcDbEntity
  8
Defpoints
 62
     0
100
AcDbPoint
 10
0.000000000000001
 20
16.92159588410127
 30
0.0
  0
ENDBLK
  5
232
330
227
100
AcDbEntity
  8
0
100
AcDbBlockEnd
  0
BLOCK
  5
3AE
330
3AC
100
AcDbEntity
  8
0
100
AcDbBlockBegin
  2
GENAXEH
 70
     0
 10
0.0
 20
0.0
 30
0.0
  3
GENAXEH
  1

  0
LINE
  5
3AD
330
3AC
100
AcDbEntity
  8
0
100
AcDbLine
 10
-1.0
 20
0.0
 30
0.0
 11
1.0
 21
0.0
 31
0.0
  0
ENDBLK
  5
3AF
330
3AC
100
AcDbEntity
  8
0
100
AcDbBlockEnd
  0
ENDSEC
  0
SECTION
  2
ENTITIES
  0
LWPOLYLINE
  5
6E
102
{ACAD_REACTORS
330
20D
330
23D
102
}
330
1F
100
AcDbEntity
  8
0
370
    40
100
AcDbPolyline
 90
        4
 70
     1
 43
0.0
 10
0.0
 20
0.0
 10
-0.0000000000000073
 20
-40.0
 10
194.5
 20
-40.00000000000003
 10
194.5
 20
-0.0000000000000357
  0
LINE
  5
70
330
1F
100
AcDbEntity
  8
0
100
AcDbLine
 10
192.5
 20
-0.000000000000035
 30
0.0
 11
192.5
 21
-40.00000000000003
 31
0.0
  0
LINE
  5
72
330
1F
100
AcDbEntity
  8
0
100
AcDbLine
 10
2.0
 20
-0.0000000000000005
 30
0.0
 11
1.999999999999992
 21
-40.0
 31
0.0
  0
LWPOLYLINE
  5
73
330
1F
100
AcDbEntity
  8
0
100
AcDbPolyline
 90
        4
 70
     1
 43
0.0
 10
175.5
 20
-6.500000000000028
 10
175.5
 20
-9.500000000000028
 10
172.5
 20
-9.500000000000028
 10
172.5
 20
-6.500000000000028
  0
CIRCLE
  5
75
330
1F
100
AcDbEntity
  8
0
370
    40
100
AcDbCircle
 10
174.0
 20
-8.000000000000028
 30
0.0
 40
0.5
  0
LWPOLYLINE
  5
9F
330
1F
100
AcDbEntity
  8
0
100
AcDbPolyline
 90
        4
 70
     1
 43
0.0
 10
169.5
 20
-6.500000000000027
 10
169.5
 20
-9.500000000000028
 10
166.5
 20
-9.500000000000026
 10
166.5
 20
-6.500000000000026
  0
LWPOLYLINE
  5
A0
330
1F
100
AcDbEntity
  8
0
100
AcDbPolyline
 90
        4
 70
     1
 43
0.0
 10
163.5
 20
-6.500000000000026
 10
163.5
 20
-9.500000000000026
 10
160.5
 20
-9.500000000000026
 10
160.5
 20
-6.500000000000025
  0
LWPOLYLINE
  5
A1
330
1F
100
AcDbEntity
  8
0
100
AcDbPolyline
 90
        4
 70
     1
 43
0.0
 10
157.5
 20
-6.500000000000025
 10
157.5
 20
-9.500000000000024
 10
154.5
 20
-9.500000000000024
 10
154.5
 20
-6.500000000000024
  0
LWPOLYLINE
  5
A2
330
1F
100
AcDbEntity
  8
0
100
AcDbPolyline
 90
        4
 70
     1
 43
0.0
 10
151.5
 20
-6.500000000000023
 10
151.5
 20
-9.500000000000024
 10
148.5
 20
-9.500000000000023
 10
148.5
 20
-6.500000000000023
  0
LWPOLYLINE
  5
A3
330
1F
100
AcDbEntity
  8
0
100
AcDbPolyline
 90
        4
 70
     1
 43
0.0
 10
145.5
 20
-6.500000000000023
 10
145.5
 20
-9.500000000000023
 10
142.5
 20
-9.500000000000023
 10
142.5
 20
-6.500000000000022
  0
LWPOLYLINE
  5
A4
330
1F
100
AcDbEntity
  8
0
100
AcDbPolyline
 90
        4
 70
     1
 43
0.0
 10
139.5
 20
-6.500000000000022
 10
139.5
 20
-9.500000000000021
 10
136.5
 20
-9.500000000000021
 10
136.5
 20
-6.500000000000021
  0
LWPOLYLINE
  5
A5
330
1F
100
AcDbEntity
  8
0
100
AcDbPolyline
 90
        4
 70
     1
 43
0.0
 10
133.5
 20
-6.500000000000021
 10
133.5
 20
-9.500000000000021
 10
130.5
 20
-9.500000000000019
 10
130.5
 20
-6.50000000000002
  0
LWPOLYLINE
  5
A6
330
1F
100
AcDbEntity
  8
0
100
AcDbPolyline
 90
        4
 70
     1
 43
0.0
 10
175.5
 20
-12.50000000000003
 10
175.5
 20
-15.50000000000003
 10
172.5
 20
-15.50000000000003
 10
172.5
 20
-12.50000000000003
  0
LWPOLYLINE
  5
A7
330
1F
100
AcDbEntity
  8
0
100
AcDbPolyline
 90
        4
 70
     1
 43
0.0
 10
169.5
 20
-12.50000000000003
 10
169.5
 20
-15.50000000000003
 10
166.5
 20
-15.50000000000002
 10
166.5
 20
-12.50000000000002
  0
LWPOLYLINE
  5
A8
330
1F
100
AcDbEntity
  8
0
100
AcDbPolyline
 90
        4
 70
     1
 43
0.0
 10
163.5
 20
-12.50000000000002
 10
163.5
 20
-15.50000000000002
 10
160.5
 20
-15.50000000000002
 10
160.5
 20
-12.50000000000002
  0
LWPOLYLINE
  5
A9
330
1F
100
AcDbEntity
  8
0
100
AcDbPolyline
 90
        4
 70
     1
 43
0.0
 10
157.5
 20
-12.50000000000002
 10
157.5
 20
-15.50000000000002
 10
154.5
 20
-15.50000000000002
 10
154.5
 20
-12.50000000000002
  0
LWPOLYLINE
  5
AA
330
1F
100
AcDbEntity
  8
0
100
AcDbPolyline
 90
        4
 70
     1
 43
0.0
 10
151.5
 20
-12.50000000000002
 10
151.5
 20
-15.50000000000002
 10
148.5
 20
-15.50000000000002
 10
148.5
 20
-12.50000000000002
  0
LWPOLYLINE
  5
AB
330
1F
100
AcDbEntity
  8
0
100
AcDbPolyline
 90
        4
 70
     1
 43
0.0
 10
145.5
 20
-12.50000000000002
 10
145.5
 20
-15.50000000000002
 10
142.5
 20
-15.50000000000002
 10
142.5
 20
-12.50000000000002
  0
LWPOLYLINE
  5
AC
330
1F
100
AcDbEntity
  8
0
100
AcDbPolyline
 90
        4
 70
     1
 43
0.0
 10
139.5
 20
-12.50000000000002
 10
139.5
 20
-15.50000000000002
 10
136.5
 20
-15.50000000000002
 10
136.5
 20
-12.50000000000002
  0
LWPOLYLINE
  5
AD
330
1F
100
AcDbEntity
  8
0
100
AcDbPolyline
 90
        4
 70
     1
 43
0.0
 10
133.5
 20
-12.50000000000002
 10
133.5
 20
-15.50000000000002
 10
130.5
 20
-15.50000000000002
 10
130.5
 20
-12.50000000000002
  0
LWPOLYLINE
  5
AE
330
1F
100
AcDbEntity
  8
0
100
AcDbPolyline
 90
        4
 70
     1
 43
0.0
 10
175.5
 20
-18.50000000000003
 10
175.5
 20
-21.50000000000003
 10
172.5
 20
-21.50000000000003
 10
172.5
 20
-18.50000000000003
  0
LWPOLYLINE
  5
AF
330
1F
100
AcDbEntity
  8
0
100
AcDbPolyline
 90
        4
 70
     1
 43
0.0
 10
169.5
 20
-18.50000000000003
 10
169.5
 20
-21.50000000000003
 10
166.5
 20
-21.50000000000003
 10
166.5
 20
-18.50000000000003
  0
LWPOLYLINE
  5
B0
330
1F
100
AcDbEntity
  8
0
100
AcDbPolyline
 90
        4
 70
     1
 43
0.0
 10
163.5
 20
-18.50000000000002
 10
163.5
 20
-21.50000000000003
 10
160.5
 20
-21.50000000000003
 10
160.5
 20
-18.50000000000002
  0
LWPOLYLINE
  5
B1
330
1F
100
AcDbEntity
  8
0
100
AcDbPolyline
 90
        4
 70
     1
 43
0.0
 10
157.5
 20
-18.50000000000002
 10
157.5
 20
-21.50000000000003
 10
154.5
 20
-21.50000000000003
 10
154.5
 20
-18.50000000000002
  0
LWPOLYLINE
  5
B2
330
1F
100
AcDbEntity
  8
0
100
AcDbPolyline
 90
        4
 70
     1
 43
0.0
 10
151.5
 20
-18.50000000000002
 10
151.5
 20
-21.50000000000003
 10
148.5
 20
-21.50000000000003
 10
148.5
 20
-18.50000000000002
  0
LWPOLYLINE
  5
B3
330
1F
100
AcDbEntity
  8
0
100
AcDbPolyline
 90
        4
 70
     1
 43
0.0
 10
145.5
 20
-18.50000000000002
 10
145.5
 20
-21.50000000000003
 10
142.5
 20
-21.50000000000002
 10
142.5
 20
-18.50000000000002
  0
LWPOLYLINE
  5
B4
330
1F
100
AcDbEntity
  8
0
100
AcDbPolyline
 90
        4
 70
     1
 43
0.0
 10
139.5
 20
-18.50000000000002
 10
139.5
 20
-21.50000000000002
 10
136.5
 20
-21.50000000000002
 10
136.5
 20
-18.50000000000002
  0
LWPOLYLINE
  5
B5
330
1F
100
AcDbEntity
  8
0
100
AcDbPolyline
 90
        4
 70
     1
 43
0.0
 10
133.5
 20
-18.50000000000002
 10
133.5
 20
-21.50000000000002
 10
130.5
 20
-21.50000000000002
 10
130.5
 20
-18.50000000000002
  0
LWPOLYLINE
  5
B6
330
1F
100
AcDbEntity
  8
0
100
AcDbPolyline
 90
        4
 70
     1
 43
0.0
 10
175.5
 20
-24.50000000000003
 10
175.5
 20
-27.50000000000003
 10
172.5
 20
-27.50000000000003
 10
172.5
 20
-24.50000000000003
  0
LWPOLYLINE
  5
B7
330
1F
100
AcDbEntity
  8
0
100
AcDbPolyline
 90
        4
 70
     1
 43
0.0
 10
169.5
 20
-24.50000000000003
 10
169.5
 20
-27.50000000000003
 10
166.5
 20
-27.50000000000003
 10
166.5
 20
-24.50000000000003
  0
LWPOLYLINE
  5
B8
330
1F
100
AcDbEntity
  8
0
100
AcDbPolyline
 90
        4
 70
     1
 43
0.0
 10
163.5
 20
-24.50000000000003
 10
163.5
 20
-27.50000000000003
 10
160.5
 20
-27.50000000000003
 10
160.5
 20
-24.50000000000003
  0
LWPOLYLINE
  5
B9
330
1F
100
AcDbEntity
  8
0
100
AcDbPolyline
 90
        4
 70
     1
 43
0.0
 10
157.5
 20
-24.50000000000003
 10
157.5
 20
-27.50000000000003
 10
154.5
 20
-27.50000000000003
 10
154.5
 20
-24.50000000000003
  0
LWPOLYLINE
  5
BA
330
1F
100
AcDbEntity
  8
0
100
AcDbPolyline
 90
        4
 70
     1
 43
0.0
 10
151.5
 20
-24.50000000000003
 10
151.5
 20
-27.50000000000003
 10
148.5
 20
-27.50000000000003
 10
148.5
 20
-24.50000000000003
  0
LWPOLYLINE
  5
BB
330
1F
100
AcDbEntity
  8
0
100
AcDbPolyline
 90
        4
 70
     1
 43
0.0
 10
145.5
 20
-24.50000000000003
 10
145.5
 20
-27.50000000000003
 10
142.5
 20
-27.50000000000002
 10
142.5
 20
-24.50000000000002
  0
LWPOLYLINE
  5
BC
330
1F
100
AcDbEntity
  8
0
100
AcDbPolyline
 90
        4
 70
     1
 43
0.0
 10
139.5
 20
-24.50000000000002
 10
139.5
 20
-27.50000000000002
 10
136.5
 20
-27.50000000000002
 10
136.5
 20
-24.50000000000002
  0
LWPOLYLINE
  5
BD
330
1F
100
AcDbEntity
  8
0
100
AcDbPolyline
 90
        4
 70
     1
 43
0.0
 10
133.5
 20
-24.50000000000002
 10
133.5
 20
-27.50000000000002
 10
130.5
 20
-27.50000000000002
 10
130.5
 20
-24.50000000000002
  0
LWPOLYLINE
  5
BE
330
1F
100
AcDbEntity
  8
0
100
AcDbPolyline
 90
        4
 70
     1
 43
0.0
 10
175.5
 20
-30.50000000000003
 10
175.5
 20
-33.50000000000004
 10
172.5
 20
-33.50000000000003
 10
172.5
 20
-30.50000000000003
  0
LWPOLYLINE
  5
BF
330
1F
100
AcDbEntity
  8
0
100
AcDbPolyline
 90
        4
 70
     1
 43
0.0
 10
169.5
 20
-30.50000000000003
 10
169.5
 20
-33.50000000000003
 10
166.5
 20
-33.50000000000003
 10
166.5
 20
-30.50000000000003
  0
LWPOLYLINE
  5
C0
330
1F
100
AcDbEntity
  8
0
100
AcDbPolyline
 90
        4
 70
     1
 43
0.0
 10
163.5
 20
-30.50000000000002
 10
163.5
 20
-33.50000000000003
 10
160.5
 20
-33.50000000000003
 10
160.5
 20
-30.50000000000002
  0
LWPOLYLINE
  5
C1
330
1F
100
AcDbEntity
  8
0
100
AcDbPolyline
 90
        4
 70
     1
 43
0.0
 10
157.5
 20
-30.50000000000002
 10
157.5
 20
-33.50000000000003
 10
154.5
 20
-33.50000000000003
 10
154.5
 20
-30.50000000000002
  0
LWPOLYLINE
  5
C2
330
1F
100
AcDbEntity
  8
0
100
AcDbPolyline
 90
        4
 70
     1
 43
0.0
 10
151.5
 20
-30.50000000000002
 10
151.5
 20
-33.50000000000003
 10
148.5
 20
-33.50000000000003
 10
148.5
 20
-30.50000000000002
  0
LWPOLYLINE
  5
C3
330
1F
100
AcDbEntity
  8
0
100
AcDbPolyline
 90
        4
 70
     1
 43
0.0
 10
145.5
 20
-30.50000000000002
 10
145.5
 20
-33.50000000000003
 10
142.5
 20
-33.50000000000003
 10
142.5
 20
-30.50000000000002
  0
LWPOLYLINE
  5
C4
330
1F
100
AcDbEntity
  8
0
100
AcDbPolyline
 90
        4
 70
     1
 43
0.0
 10
139.5
 20
-30.50000000000002
 10
139.5
 20
-33.50000000000003
 10
136.5
 20
-33.50000000000003
 10
136.5
 20
-30.50000000000002
  0
LWPOLYLINE
  5
C5
330
1F
100
AcDbEntity
  8
0
100
AcDbPolyline
 90
        4
 70
     1
 43
0.0
 10
133.5
 20
-30.50000000000002
 10
133.5
 20
-33.50000000000002
 10
130.5
 20
-33.50000000000002
 10
130.5
 20
-30.50000000000002
  0
CIRCLE
  5
C6
330
1F
100
AcDbEntity
  8
0
370
    40
100
AcDbCircle
 10
168.0
 20
-8.000000000000026
 30
0.0
 40
0.5
  0
CIRCLE
  5
C7
330
1F
100
AcDbEntity
  8
0
370
    40
100
AcDbCircle
 10
162.0
 20
-8.000000000000026
 30
0.0
 40
0.5
  0
CIRCLE
  5
C8
330
1F
100
AcDbEntity
  8
0
370
    40
100
AcDbCircle
 10
156.0
 20
-8.000000000000024
 30
0.0
 40
0.5
  0
CIRCLE
  5
C9
330
1F
100
AcDbEntity
  8
0
370
    40
100
AcDbCircle
 10
150.0
 20
-8.000000000000024
 30
0.0
 40
0.5
  0
CIRCLE
  5
CA
330
1F
100
AcDbEntity
  8
0
370
    40
100
AcDbCircle
 10
144.0
 20
-8.000000000000023
 30
0.0
 40
0.5
  0
CIRCLE
  5
CB
330
1F
100
AcDbEntity
  8
0
370
    40
100
AcDbCircle
 10
138.0
 20
-8.000000000000021
 30
0.0
 40
0.5
  0
CIRCLE
  5
CC
330
1F
100
AcDbEntity
  8
0
370
    40
100
AcDbCircle
 10
132.0
 20
-8.000000000000021
 30
0.0
 40
0.5
  0
CIRCLE
  5
CD
330
1F
100
AcDbEntity
  8
0
370
    40
100
AcDbCircle
 10
174.0
 20
-14.00000000000003
 30
0.0
 40
0.5
  0
CIRCLE
  5
CE
330
1F
100
AcDbEntity
  8
0
370
    40
100
AcDbCircle
 10
168.0
 20
-14.00000000000003
 30
0.0
 40
0.5
  0
CIRCLE
  5
CF
330
1F
100
AcDbEntity
  8
0
370
    40
100
AcDbCircle
 10
162.0
 20
-14.00000000000003
 30
0.0
 40
0.5
  0
CIRCLE
  5
D0
330
1F
100
AcDbEntity
  8
0
370
    40
100
AcDbCircle
 10
156.0
 20
-14.00000000000002
 30
0.0
 40
0.5
  0
CIRCLE
  5
D1
330
1F
100
AcDbEntity
  8
0
370
    40
100
AcDbCircle
 10
150.0
 20
-14.00000000000002
 30
0.0
 40
0.5
  0
CIRCLE
  5
D2
330
1F
100
AcDbEntity
  8
0
370
    40
100
AcDbCircle
 10
144.0
 20
-14.00000000000002
 30
0.0
 40
0.5
  0
CIRCLE
  5
D3
330
1F
100
AcDbEntity
  8
0
370
    40
100
AcDbCircle
 10
138.0
 20
-14.00000000000002
 30
0.0
 40
0.5
  0
CIRCLE
  5
D4
330
1F
100
AcDbEntity
  8
0
370
    40
100
AcDbCircle
 10
132.0
 20
-14.00000000000002
 30
0.0
 40
0.5
  0
CIRCLE
  5
D5
330
1F
100
AcDbEntity
  8
0
370
    40
100
AcDbCircle
 10
174.0
 20
-20.00000000000003
 30
0.0
 40
0.5
  0
CIRCLE
  5
D6
330
1F
100
AcDbEntity
  8
0
370
    40
100
AcDbCircle
 10
168.0
 20
-20.00000000000003
 30
0.0
 40
0.5
  0
CIRCLE
  5
D7
330
1F
100
AcDbEntity
  8
0
370
    40
100
AcDbCircle
 10
162.0
 20
-20.00000000000003
 30
0.0
 40
0.5
  0
CIRCLE
  5
D8
330
1F
100
AcDbEntity
  8
0
370
    40
100
AcDbCircle
 10
156.0
 20
-20.00000000000003
 30
0.0
 40
0.5
  0
CIRCLE
  5
D9
330
1F
100
AcDbEntity
  8
0
370
    40
100
AcDbCircle
 10
150.0
 20
-20.00000000000003
 30
0.0
 40
0.5
  0
CIRCLE
  5
DA
330
1F
100
AcDbEntity
  8
0
370
    40
100
AcDbCircle
 10
144.0
 20
-20.00000000000002
 30
0.0
 40
0.5
  0
CIRCLE
  5
DB
330
1F
100
AcDbEntity
  8
0
370
    40
100
AcDbCircle
 10
138.0
 20
-20.00000000000002
 30
0.0
 40
0.5
  0
CIRCLE
  5
DC
330
1F
100
AcDbEntity
  8
0
370
    40
100
AcDbCircle
 10
132.0
 20
-20.00000000000002
 30
0.0
 40
0.5
  0
CIRCLE
  5
DD
330
1F
100
AcDbEntity
  8
0
370
    40
100
AcDbCircle
 10
174.0
 20
-26.00000000000003
 30
0.0
 40
0.5
  0
CIRCLE
  5
DE
330
1F
100
AcDbEntity
  8
0
370
    40
100
AcDbCircle
 10
168.0
 20
-26.00000000000003
 30
0.0
 40
0.5
  0
CIRCLE
  5
DF
330
1F
100
AcDbEntity
  8
0
370
    40
100
AcDbCircle
 10
162.0
 20
-26.00000000000003
 30
0.0
 40
0.5
  0
CIRCLE
  5
E0
330
1F
100
AcDbEntity
  8
0
370
    40
100
AcDbCircle
 10
156.0
 20
-26.00000000000003
 30
0.0
 40
0.5
  0
CIRCLE
  5
E1
330
1F
100
AcDbEntity
  8
0
370
    40
100
AcDbCircle
 10
150.0
 20
-26.00000000000003
 30
0.0
 40
0.5
  0
CIRCLE
  5
E2
330
1F
100
AcDbEntity
  8
0
370
    40
100
AcDbCircle
 10
144.0
 20
-26.00000000000002
 30
0.0
 40
0.5
  0
CIRCLE
  5
E3
330
1F
100
AcDbEntity
  8
0
370
    40
100
AcDbCircle
 10
138.0
 20
-26.00000000000002
 30
0.0
 40
0.5
  0
CIRCLE
  5
E4
330
1F
100
AcDbEntity
  8
0
370
    40
100
AcDbCircle
 10
132.0
 20
-26.00000000000002
 30
0.0
 40
0.5
  0
CIRCLE
  5
E5
330
1F
100
AcDbEntity
  8
0
370
    40
100
AcDbCircle
 10
174.0
 20
-32.00000000000003
 30
0.0
 40
0.5
  0
CIRCLE
  5
E6
330
1F
100
AcDbEntity
  8
0
370
    40
100
AcDbCircle
 10
168.0
 20
-32.00000000000003
 30
0.0
 40
0.5
  0
CIRCLE
  5
E7
330
1F
100
AcDbEntity
  8
0
370
    40
100
AcDbCircle
 10
162.0
 20
-32.00000000000003
 30
0.0
 40
0.5
  0
CIRCLE
  5
E8
330
1F
100
AcDbEntity
  8
0
370
    40
100
AcDbCircle
 10
156.0
 20
-32.00000000000003
 30
0.0
 40
0.5
  0
CIRCLE
  5
E9
330
1F
100
AcDbEntity
  8
0
370
    40
100
AcDbCircle
 10
150.0
 20
-32.00000000000002
 30
0.0
 40
0.5
  0
CIRCLE
  5
EA
330
1F
100
AcDbEntity
  8
0
370
    40
100
AcDbCircle
 10
144.0
 20
-32.00000000000002
 30
0.0
 40
0.5
  0
CIRCLE
  5
EB
330
1F
100
AcDbEntity
  8
0
370
    40
100
AcDbCircle
 10
138.0
 20
-32.00000000000002
 30
0.0
 40
0.5
  0
CIRCLE
  5
EC
330
1F
100
AcDbEntity
  8
0
370
    40
100
AcDbCircle
 10
132.0
 20
-32.00000000000002
 30
0.0
 40
0.5
  0
LINE
  5
103
330
1F
100
AcDbEntity
  8
0
370
    40
100
AcDbLine
 10
-0.0000000000000054
 20
-29.15
 30
0.0
 11
-1.580487804878053
 21
-29.15
 31
0.0
  0
LINE
  5
105
330
1F
100
AcDbEntity
  8
0
370
    40
100
AcDbLine
 10
-2.919512195121953
 20
-10.85
 30
0.0
 11
-0.000000000000002
 21
-10.85
 31
0.0
  0
LINE
  5
108
330
1F
100
AcDbEntity
  8
0
370
    40
100
AcDbLine
 10
-7.541311367140377
 20
-9.810590005139218
 30
0.0
 11
-8.250000000000001
 21
-10.85
 31
0.0
  0
LINE
  5
109
330
1F
100
AcDbEntity
  8
0
370
    40
100
AcDbLine
 10
-8.250000000000001
 20
-10.85
 30
0.0
 11
-8.958688632859624
 21
-9.810590005139218
 31
0.0
  0
LINE
  5
10A
330
1F
100
AcDbEntity
  8
0
370
    40
100
AcDbLine
 10
-9.041311367140378
 20
-9.810590005139218
 30
0.0
 11
-9.750000000000001
 21
-10.85
 31
0.0
  0
LINE
  5
10B
330
1F
100
AcDbEntity
  8
0
370
    40
100
AcDbLine
 10
-9.750000000000001
 20
-10.85
 30
0.0
 11
-10.40868863285962
 21
-9.883923338472552
 31
0.0
  0
LINE
  5
10C
330
1F
100
AcDbEntity
  8
0
370
    40
100
AcDbLine
 10
-6.041311367140378
 20
-9.810590005139218
 30
0.0
 11
-6.750000000000001
 21
-10.85
 31
0.0
  0
LINE
  5
10D
330
1F
100
AcDbEntity
  8
0
370
    40
100
AcDbLine
 10
-6.750000000000001
 20
-10.85
 30
0.0
 11
-7.458688632859623
 21
-9.810590005139218
 31
0.0
  0
LINE
  5
10E
330
1F
100
AcDbEntity
  8
0
370
    40
100
AcDbLine
 10
-4.541311367140379
 20
-9.81059000513922
 30
0.0
 11
-5.250000000000001
 21
-10.85
 31
0.0
  0
LINE
  5
10F
330
1F
100
AcDbEntity
  8
0
370
    40
100
AcDbLine
 10
-5.250000000000001
 20
-10.85
 30
0.0
 11
-5.958688632859624
 21
-9.810590005139218
 31
0.0
  0
LINE
  5
110
330
1F
100
AcDbEntity
  8
0
370
    40
100
AcDbLine
 10
-3.091311367140379
 20
-9.883923338472554
 30
0.0
 11
-3.750000000000001
 21
-10.85
 31
0.0
  0
LINE
  5
111
330
1F
100
AcDbEntity
  8
0
370
    40
100
AcDbLine
 10
-3.750000000000001
 20
-10.85
 30
0.0
 11
-4.458688632859625
 21
-9.81059000513922
 31
0.0
  0
ARC
  5
114
330
1F
100
AcDbEntity
  8
0
370
    40
100
AcDbCircle
 10
-4.500000000000002
 20
-9.838756846371294
 30
0.0
 40
0.05
100
AcDbArc
 50
34.28687697720892
 51
145.7131230227911
  0
ARC
  5
115
330
1F
100
AcDbEntity
  8
0
370
    40
100
AcDbCircle
 10
-3.050000000000001
 20
-9.912090179704629
 30
0.0
 40
0.05
100
AcDbArc
 50
0.0
 51
145.7131230227911
  0
ARC
  5
116
330
1F
100
AcDbEntity
  8
0
370
    40
100
AcDbCircle
 10
-6.000000000000001
 20
-9.838756846371293
 30
0.0
 40
0.05
100
AcDbArc
 50
34.28687697720892
 51
145.7131230227911
  0
ARC
  5
117
330
1F
100
AcDbEntity
  8
0
370
    40
100
AcDbCircle
 10
-7.5
 20
-9.838756846371293
 30
0.0
 40
0.05
100
AcDbArc
 50
34.28687697720892
 51
145.7131230227911
  0
ARC
  5
118
330
1F
100
AcDbEntity
  8
0
370
    40
100
AcDbCircle
 10
-9.000000000000001
 20
-9.838756846371293
 30
0.0
 40
0.05
100
AcDbArc
 50
34.28687697720892
 51
145.7131230227911
  0
ARC
  5
119
330
1F
100
AcDbEntity
  8
0
370
    40
100
AcDbCircle
 10
-10.45
 20
-9.912090179704627
 30
0.0
 40
0.05
100
AcDbArc
 50
34.28687697720892
 51
180.0
  0
LINE
  5
11B
330
1F
100
AcDbEntity
  8
0
370
    40
100
AcDbLine
 10
-1.604747187310419
 20
-30.09637079194473
 30
0.0
 11
-2.250000000000005
 21
-29.15
 31
0.0
  0
LINE
  5
11C
330
1F
100
AcDbEntity
  8
0
370
    40
100
AcDbLine
 10
-2.250000000000005
 20
-29.15
 30
0.0
 11
-2.958688633562074
 21
-30.18940999486078
 31
0.0
  0
LINE
  5
11D
330
1F
100
AcDbEntity
  8
0
370
    40
100
AcDbLine
 10
-3.750000000000005
 20
-29.15
 30
0.0
 11
-4.458688633562077
 21
-30.18940999486078
 31
0.0
  0
LINE
  5
11E
330
1F
100
AcDbEntity
  8
0
370
    40
100
AcDbLine
 10
-3.041311367842829
 20
-30.18940999486078
 30
0.0
 11
-3.750000000000005
 21
-29.15
 31
0.0
  0
LINE
  5
11F
330
1F
100
AcDbEntity
  8
0
370
    40
100
AcDbLine
 10
-4.541311367842831
 20
-30.18940999486078
 30
0.0
 11
-5.250000000000005
 21
-29.15
 31
0.0
  0
LINE
  5
120
330
1F
100
AcDbEntity
  8
0
370
    40
100
AcDbLine
 10
-5.250000000000005
 20
-29.15
 30
0.0
 11
-5.958688633562075
 21
-30.18940999486078
 31
0.0
  0
LINE
  5
121
330
1F
100
AcDbEntity
  8
0
370
    40
100
AcDbLine
 10
-6.041311367842829
 20
-30.18940999486078
 30
0.0
 11
-6.750000000000005
 21
-29.15
 31
0.0
  0
LINE
  5
122
330
1F
100
AcDbEntity
  8
0
370
    40
100
AcDbLine
 10
-6.750000000000005
 20
-29.15
 30
0.0
 11
-7.458688633562077
 21
-30.18940999486078
 31
0.0
  0
LINE
  5
123
330
1F
100
AcDbEntity
  8
0
370
    40
100
AcDbLine
 10
-7.541311367842832
 20
-30.18940999486078
 30
0.0
 11
-8.250000000000005
 21
-29.15
 31
0.0
  0
LINE
  5
124
330
1F
100
AcDbEntity
  8
0
370
    40
100
AcDbLine
 10
-8.250000000000005
 20
-29.15
 30
0.0
 11
-8.958688633562074
 21
-30.18940999486078
 31
0.0
  0
LINE
  5
125
330
1F
100
AcDbEntity
  8
0
370
    40
100
AcDbLine
 10
-9.041311367842828
 20
-30.18940999486078
 30
0.0
 11
-9.750000000000005
 21
-29.15
 31
0.0
  0
LINE
  5
126
330
1F
100
AcDbEntity
  8
0
370
    40
100
AcDbLine
 10
-9.750000000000005
 20
-29.15
 30
0.0
 11
-10.40868863285963
 21
-30.11607666152745
 31
0.0
  0
ARC
  5
127
330
1F
100
AcDbEntity
  8
0
370
    40
100
AcDbCircle
 10
-10.45
 20
-30.08790982029537
 30
0.0
 40
0.05
100
AcDbArc
 50
180.0
 51
325.713123022791
  0
ARC
  5
128
330
1F
100
AcDbEntity
  8
0
370
    40
100
AcDbCircle
 10
-9.000000000702451
 20
-30.1612431536287
 30
0.0
 40
0.05
100
AcDbArc
 50
214.286876977209
 51
325.713123022791
  0
ARC
  5
129
330
1F
100
AcDbEntity
  8
0
370
    40
100
AcDbCircle
 10
-7.500000000702454
 20
-30.16124315362871
 30
0.0
 40
0.05
100
AcDbArc
 50
214.286876977209
 51
325.713123022791
  0
ARC
  5
12A
330
1F
100
AcDbEntity
  8
0
370
    40
100
AcDbCircle
 10
-6.000000000702452
 20
-30.16124315362871
 30
0.0
 40
0.05
100
AcDbArc
 50
214.286876977209
 51
325.713123022791
  0
ARC
  5
12B
330
1F
100
AcDbEntity
  8
0
370
    40
100
AcDbCircle
 10
-4.500000000702454
 20
-30.1612431536287
 30
0.0
 40
0.05
100
AcDbArc
 50
214.286876977209
 51
325.713123022791
  0
ARC
  5
12C
330
1F
100
AcDbEntity
  8
0
370
    40
100
AcDbCircle
 10
-3.000000000702451
 20
-30.16124315362871
 30
0.0
 40
0.05
100
AcDbArc
 50
214.286876977209
 51
325.713123022791
  0
ARC
  5
12D
330
1F
100
AcDbEntity
  8
0
370
    40
100
AcDbCircle
 10
-1.563435820170042
 20
-30.06820395071266
 30
0.0
 40
0.05
100
AcDbArc
 50
214.286876977209
 51
4.18491612511837
  0
LINE
  5
12F
330
1F
100
AcDbEntity
  8
0
370
    40
100
AcDbLine
 10
-10.5
 20
-9.912090179704627
 30
0.0
 11
-10.5
 21
-30.08790982029537
 31
0.0
  0
LINE
  5
130
330
1F
100
AcDbEntity
  8
0
100
AcDbLine
 10
-1.513569133990463
 20
-30.06455516879708
 30
0.0
 11
-3.000000000000001
 21
-9.912090179704629
 31
0.0
  0
LINE
  5
131
330
1F
100
AcDbEntity
  8
0
100
AcDbLine
 10
-3.750000000000001
 20
-10.85
 30
0.0
 11
-2.250000000000005
 21
-29.15
 31
0.0
  0
LINE
  5
132
330
1F
100
AcDbEntity
  8
0
100
AcDbLine
 10
-5.250000000000001
 20
-10.85
 30
0.0
 11
-3.750000000000005
 21
-29.15
 31
0.0
  0
LINE
  5
133
330
1F
100
AcDbEntity
  8
0
100
AcDbLine
 10
-6.750000000000001
 20
-10.85
 30
0.0
 11
-5.250000000000005
 21
-29.15
 31
0.0
  0
LINE
  5
134
330
1F
100
AcDbEntity
  8
0
100
AcDbLine
 10
-8.250000000000001
 20
-10.85
 30
0.0
 11
-6.750000000000005
 21
-29.15
 31
0.0
  0
LINE
  5
135
330
1F
100
AcDbEntity
  8
0
100
AcDbLine
 10
-9.750000000000001
 20
-10.85
 30
0.0
 11
-8.250000000000005
 21
-29.15
 31
0.0
  0
LINE
  5
136
330
1F
100
AcDbEntity
  8
0
100
AcDbLine
 10
-4.500000000000002
 20
-9.788756846371294
 30
0.0
 11
-3.000000000702451
 21
-30.21124315362871
 31
0.0
  0
LINE
  5
137
330
1F
100
AcDbEntity
  8
0
100
AcDbLine
 10
-6.000000000000001
 20
-9.788756846371292
 30
0.0
 11
-4.500000000702454
 21
-30.2112431536287
 31
0.0
  0
LINE
  5
138
330
1F
100
AcDbEntity
  8
0
100
AcDbLine
 10
-7.5
 20
-9.788756846371292
 30
0.0
 11
-6.000000000702452
 21
-30.21124315362871
 31
0.0
  0
LINE
  5
139
330
1F
100
AcDbEntity
  8
0
100
AcDbLine
 10
-9.000000000000001
 20
-9.788756846371292
 30
0.0
 11
-7.500000000702454
 21
-30.21124315362871
 31
0.0
  0
LINE
  5
13A
330
1F
100
AcDbEntity
  8
0
100
AcDbLine
 10
-10.45
 20
-9.862090179704626
 30
0.0
 11
-9.000000000702451
 21
-30.2112431536287
 31
0.0
  0
LINE
  5
158
330
1F
100
AcDbEntity
  8
0
100
AcDbLine
 10
-10.5
 20
-20.0
 30
0.0
 11
-9.750000000000005
 21
-29.15
 31
0.0
  0
LINE
  5
183
102
{ACAD_REACTORS
330
225
102
}
330
1F
100
AcDbEntity
  8
0
370
    40
100
AcDbLine
 10
194.5
 20
-70.00000000000004
 30
0.0
 11
-0.0000000000000129
 21
-70.0
 31
0.0
  0
LINE
  5
184
330
1F
100
AcDbEntity
  8
0
370
    40
100
AcDbLine
 10
-0.0000000000000122
 20
-67.75
 30
0.0
 11
-0.0000000000000169
 21
-92.24999999999999
 31
0.0
  0
LINE
  5
185
330
1F
100
AcDbEntity
  8
0
370
    40
100
AcDbLine
 10
194.5
 20
-70.00000000000004
 30
0.0
 11
194.5
 21
-90.00000000000005
 31
0.0
  0
LINE
  5
186
102
{ACAD_REACTORS
330
225
102
}
330
1F
100
AcDbEntity
  8
0
370
    40
100
AcDbLine
 10
194.5
 20
-90.00000000000005
 30
0.0
 11
-0.0000000000000165
 21
-90.0
 31
0.0
  0
LINE
  5
187
330
1F
100
AcDbEntity
  8
0
100
AcDbLine
 10
192.5
 20
-70.00000000000003
 30
0.0
 11
192.5
 21
-90.00000000000003
 31
0.0
  0
LINE
  5
188
330
1F
100
AcDbEntity
  8
0
100
AcDbLine
 10
1.999999999999988
 20
-67.82177128414218
 30
0.0
 11
1.999999999999982
 21
-92.17822871585781
 31
0.0
  0
ARC
  5
18E
330
1F
100
AcDbEntity
  8
0
100
AcDbCircle
 10
-2.363114800239051
 20
-52.26672144066928
 30
0.0
 40
39.83687294076802
100
AcDbArc
 50
56.18378168211297
 51
86.59923013697422
  0
ARC
  5
18F
330
1F
100
AcDbEntity
  8
0
100
AcDbCircle
 10
-2.363114800239039
 20
12.26672144066929
 30
0.0
 40
39.83687294076802
100
AcDbArc
 50
273.4007698630257
 51
303.816218317887
  0
ARC
  5
190
330
1F
100
AcDbEntity
  8
0
100
AcDbCircle
 10
19.25080171869875
 20
-20.0
 30
0.0
 40
1.0
100
AcDbArc
 50
303.816218317887
 51
56.18378168211297
  0
LINE
  5
1A2
330
1F
100
AcDbEntity
  8
0
100
AcDbLine
 10
175.4999999999999
 20
-90.00000000000003
 30
0.0
 11
175.4999999999999
 21
-91.50000000000003
 31
0.0
  0
LINE
  5
1A3
330
1F
100
AcDbEntity
  8
0
100
AcDbLine
 10
175.4999999999999
 20
-91.50000000000003
 30
0.0
 11
172.4999999999999
 21
-91.50000000000003
 31
0.0
  0
LINE
  5
1A4
330
1F
100
AcDbEntity
  8
0
100
AcDbLine
 10
172.4999999999999
 20
-91.50000000000003
 30
0.0
 11
172.4999999999999
 21
-90.00000000000003
 31
0.0
  0
LINE
  5
1A6
330
1F
100
AcDbEntity
  8
0
100
AcDbLine
 10
169.5
 20
-91.50000000000003
 30
0.0
 11
166.5
 21
-91.50000000000003
 31
0.0
  0
LINE
  5
1A7
330
1F
100
AcDbEntity
  8
0
100
AcDbLine
 10
166.5
 20
-91.50000000000003
 30
0.0
 11
166.5
 21
-90.00000000000003
 31
0.0
  0
LINE
  5
1A8
330
1F
100
AcDbEntity
  8
0
100
AcDbLine
 10
169.5
 20
-90.00000000000003
 30
0.0
 11
169.5
 21
-91.50000000000003
 31
0.0
  0
LINE
  5
1A9
330
1F
100
AcDbEntity
  8
0
100
AcDbLine
 10
163.4999999999999
 20
-91.50000000000003
 30
0.0
 11
160.4999999999999
 21
-91.50000000000003
 31
0.0
  0
LINE
  5
1AA
330
1F
100
AcDbEntity
  8
0
100
AcDbLine
 10
160.4999999999999
 20
-91.50000000000003
 30
0.0
 11
160.4999999999999
 21
-90.00000000000003
 31
0.0
  0
LINE
  5
1AB
330
1F
100
AcDbEntity
  8
0
100
AcDbLine
 10
163.4999999999999
 20
-90.00000000000003
 30
0.0
 11
163.4999999999999
 21
-91.50000000000003
 31
0.0
  0
LINE
  5
1AC
330
1F
100
AcDbEntity
  8
0
100
AcDbLine
 10
157.5
 20
-91.50000000000003
 30
0.0
 11
154.4999999999999
 21
-91.50000000000003
 31
0.0
  0
LINE
  5
1AD
330
1F
100
AcDbEntity
  8
0
100
AcDbLine
 10
154.4999999999999
 20
-91.50000000000003
 30
0.0
 11
154.4999999999999
 21
-90.00000000000003
 31
0.0
  0
LINE
  5
1AE
330
1F
100
AcDbEntity
  8
0
100
AcDbLine
 10
157.5
 20
-90.00000000000003
 30
0.0
 11
157.5
 21
-91.50000000000003
 31
0.0
  0
LINE
  5
1AF
330
1F
100
AcDbEntity
  8
0
100
AcDbLine
 10
151.4999999999999
 20
-91.50000000000003
 30
0.0
 11
148.4999999999999
 21
-91.50000000000003
 31
0.0
  0
LINE
  5
1B0
330
1F
100
AcDbEntity
  8
0
100
AcDbLine
 10
148.4999999999999
 20
-91.50000000000003
 30
0.0
 11
148.4999999999999
 21
-90.00000000000003
 31
0.0
  0
LINE
  5
1B1
330
1F
100
AcDbEntity
  8
0
100
AcDbLine
 10
151.4999999999999
 20
-90.00000000000003
 30
0.0
 11
151.4999999999999
 21
-91.50000000000003
 31
0.0
  0
LINE
  5
1B2
330
1F
100
AcDbEntity
  8
0
100
AcDbLine
 10
145.5
 20
-91.50000000000003
 30
0.0
 11
142.5
 21
-91.50000000000003
 31
0.0
  0
LINE
  5
1B3
330
1F
100
AcDbEntity
  8
0
100
AcDbLine
 10
142.5
 20
-91.50000000000003
 30
0.0
 11
142.5
 21
-90.00000000000003
 31
0.0
  0
LINE
  5
1B4
330
1F
100
AcDbEntity
  8
0
100
AcDbLine
 10
145.5
 20
-90.00000000000003
 30
0.0
 11
145.5
 21
-91.50000000000003
 31
0.0
  0
LINE
  5
1B5
330
1F
100
AcDbEntity
  8
0
100
AcDbLine
 10
139.5
 20
-91.50000000000003
 30
0.0
 11
136.4999999999999
 21
-91.50000000000003
 31
0.0
  0
LINE
  5
1B6
330
1F
100
AcDbEntity
  8
0
100
AcDbLine
 10
136.4999999999999
 20
-91.50000000000003
 30
0.0
 11
136.4999999999999
 21
-90.00000000000003
 31
0.0
  0
LINE
  5
1B7
330
1F
100
AcDbEntity
  8
0
100
AcDbLine
 10
139.5
 20
-90.00000000000003
 30
0.0
 11
139.5
 21
-91.50000000000003
 31
0.0
  0
LINE
  5
1B8
330
1F
100
AcDbEntity
  8
0
100
AcDbLine
 10
133.4999999999999
 20
-91.50000000000003
 30
0.0
 11
130.4999999999999
 21
-91.50000000000003
 31
0.0
  0
LINE
  5
1B9
330
1F
100
AcDbEntity
  8
0
100
AcDbLine
 10
130.4999999999999
 20
-91.50000000000003
 30
0.0
 11
130.4999999999999
 21
-90.00000000000003
 31
0.0
  0
LINE
  5
1BA
330
1F
100
AcDbEntity
  8
0
100
AcDbLine
 10
133.4999999999999
 20
-90.00000000000003
 30
0.0
 11
133.4999999999999
 21
-91.50000000000003
 31
0.0
  0
ARC
  5
1BE
330
1F
100
AcDbEntity
  8
0
370
    40
100
AcDbCircle
 10
-3.411175151049106
 20
-190.7090074385219
 30
0.0
 40
123.0063153914368
100
AcDbArc
 50
78.9092279532327
 51
88.4108864769141
  0
ARC
  5
1BF
330
1F
100
AcDbEntity
  8
0
370
    40
100
AcDbCircle
 10
-3.411175151049065
 20
30.70900743852195
 30
0.0
 40
123.0063153914368
100
AcDbArc
 50
271.5891135230859
 51
281.0907720467672
  0
LINE
  5
1C0
330
1F
100
AcDbEntity
  8
0
370
    40
100
AcDbLine
 10
-10.50000000000001
 20
-69.91209017970463
 30
0.0
 11
-10.50000000000001
 21
-90.08790982029537
 31
0.0
  0
LINE
  5
1C1
330
1F
100
AcDbEntity
  8
0
100
AcDbLine
 10
-9.000000000000012
 20
-69.7887568463713
 30
0.0
 11
-7.500000000702466
 21
-90.21124315362872
 31
0.0
  0
LINE
  5
1C2
330
1F
100
AcDbEntity
  8
0
100
AcDbLine
 10
-10.45000000000001
 20
-69.86209017970463
 30
0.0
 11
-9.000000000702462
 21
-90.2112431536287
 31
0.0
  0
LINE
  5
1C3
330
1F
100
AcDbEntity
  8
0
100
AcDbLine
 10
-7.500000000000011
 20
-69.7887568463713
 30
0.0
 11
-6.000000000702463
 21
-90.21124315362872
 31
0.0
  0
LINE
  5
1C4
330
1F
100
AcDbEntity
  8
0
100
AcDbLine
 10
-6.000000000000012
 20
-69.7887568463713
 30
0.0
 11
-4.500000000702465
 21
-90.2112431536287
 31
0.0
  0
LINE
  5
1C5
330
1F
100
AcDbEntity
  8
0
100
AcDbLine
 10
-4.500000000000013
 20
-69.7887568463713
 30
0.0
 11
-3.000000000702462
 21
-90.21124315362872
 31
0.0
  0
LINE
  5
1C6
330
1F
100
AcDbEntity
  8
0
100
AcDbLine
 10
-9.750000000000012
 20
-70.84999999999999
 30
0.0
 11
-8.250000000000015
 21
-89.15
 31
0.0
  0
LINE
  5
1C7
330
1F
100
AcDbEntity
  8
0
100
AcDbLine
 10
-8.250000000000012
 20
-70.84999999999999
 30
0.0
 11
-6.750000000000015
 21
-89.15
 31
0.0
  0
LINE
  5
1C8
330
1F
100
AcDbEntity
  8
0
100
AcDbLine
 10
-6.750000000000013
 20
-70.84999999999999
 30
0.0
 11
-5.250000000000015
 21
-89.15
 31
0.0
  0
LINE
  5
1C9
330
1F
100
AcDbEntity
  8
0
100
AcDbLine
 10
-5.250000000000013
 20
-70.84999999999999
 30
0.0
 11
-3.750000000000016
 21
-89.15
 31
0.0
  0
LINE
  5
1CA
330
1F
100
AcDbEntity
  8
0
100
AcDbLine
 10
-3.750000000000012
 20
-70.84999999999999
 30
0.0
 11
-2.250000000000016
 21
-89.15
 31
0.0
  0
LINE
  5
1CB
330
1F
100
AcDbEntity
  8
0
100
AcDbLine
 10
-1.513569133990474
 20
-90.06455516879707
 30
0.0
 11
-3.000000000000012
 21
-69.91209017970463
 31
0.0
  0
LINE
  5
1CC
330
1F
100
AcDbEntity
  8
0
370
    40
100
AcDbLine
 10
-2.919512195121964
 20
-70.84999999999999
 30
0.0
 11
-0.0000000000000129
 21
-70.84999999999999
 31
0.0
  0
LINE
  5
1CD
330
1F
100
AcDbEntity
  8
0
370
    40
100
AcDbLine
 10
-6.750000000000013
 20
-70.84999999999999
 30
0.0
 11
-7.458688632859634
 21
-69.81059000513922
 31
0.0
  0
ARC
  5
1CE
330
1F
100
AcDbEntity
  8
0
370
    40
100
AcDbCircle
 10
-10.45000000000001
 20
-69.91209017970463
 30
0.0
 40
0.05
100
AcDbArc
 50
34.28687697720892
 51
180.0
  0
ARC
  5
1CF
330
1F
100
AcDbEntity
  8
0
370
    40
100
AcDbCircle
 10
-9.000000000000012
 20
-69.8387568463713
 30
0.0
 40
0.05
100
AcDbArc
 50
34.28687697720892
 51
145.7131230227911
  0
ARC
  5
1D0
330
1F
100
AcDbEntity
  8
0
370
    40
100
AcDbCircle
 10
-7.500000000000011
 20
-69.8387568463713
 30
0.0
 40
0.05
100
AcDbArc
 50
34.28687697720892
 51
145.7131230227911
  0
LINE
  5
1D1
330
1F
100
AcDbEntity
  8
0
370
    40
100
AcDbLine
 10
-9.750000000000012
 20
-70.84999999999999
 30
0.0
 11
-10.40868863285963
 21
-69.88392333847255
 31
0.0
  0
LINE
  5
1D2
330
1F
100
AcDbEntity
  8
0
370
    40
100
AcDbLine
 10
-9.041311367140389
 20
-69.81059000513922
 30
0.0
 11
-9.750000000000012
 21
-70.84999999999999
 31
0.0
  0
LINE
  5
1D3
330
1F
100
AcDbEntity
  8
0
370
    40
100
AcDbLine
 10
-8.250000000000012
 20
-70.84999999999999
 30
0.0
 11
-8.958688632859635
 21
-69.81059000513922
 31
0.0
  0
LINE
  5
1D4
330
1F
100
AcDbEntity
  8
0
370
    40
100
AcDbLine
 10
-7.541311367140388
 20
-69.81059000513922
 30
0.0
 11
-8.250000000000012
 21
-70.84999999999999
 31
0.0
  0
ARC
  5
1D5
330
1F
100
AcDbEntity
  8
0
370
    40
100
AcDbCircle
 10
-6.000000000000012
 20
-69.8387568463713
 30
0.0
 40
0.05
100
AcDbArc
 50
34.28687697720892
 51
145.7131230227911
  0
ARC
  5
1D6
330
1F
100
AcDbEntity
  8
0
370
    40
100
AcDbCircle
 10
-3.050000000000012
 20
-69.91209017970463
 30
0.0
 40
0.05
100
AcDbArc
 50
0.0
 51
145.7131230227911
  0
ARC
  5
1D7
330
1F
100
AcDbEntity
  8
0
370
    40
100
AcDbCircle
 10
-4.500000000000013
 20
-69.8387568463713
 30
0.0
 40
0.05
100
AcDbArc
 50
34.28687697720892
 51
145.7131230227911
  0
LINE
  5
1D8
330
1F
100
AcDbEntity
  8
0
370
    40
100
AcDbLine
 10
-3.750000000000012
 20
-70.84999999999999
 30
0.0
 11
-4.458688632859636
 21
-69.81059000513922
 31
0.0
  0
LINE
  5
1D9
330
1F
100
AcDbEntity
  8
0
370
    40
100
AcDbLine
 10
-3.09131136714039
 20
-69.88392333847255
 30
0.0
 11
-3.750000000000012
 21
-70.84999999999999
 31
0.0
  0
LINE
  5
1DA
330
1F
100
AcDbEntity
  8
0
370
    40
100
AcDbLine
 10
-5.250000000000013
 20
-70.84999999999999
 30
0.0
 11
-5.958688632859635
 21
-69.81059000513922
 31
0.0
  0
LINE
  5
1DB
330
1F
100
AcDbEntity
  8
0
370
    40
100
AcDbLine
 10
-4.54131136714039
 20
-69.81059000513922
 30
0.0
 11
-5.250000000000013
 21
-70.84999999999999
 31
0.0
  0
LINE
  5
1DC
330
1F
100
AcDbEntity
  8
0
370
    40
100
AcDbLine
 10
-6.041311367140389
 20
-69.81059000513922
 30
0.0
 11
-6.750000000000013
 21
-70.84999999999999
 31
0.0
  0
LINE
  5
1DD
330
1F
100
AcDbEntity
  8
0
370
    40
100
AcDbLine
 10
-0.0000000000000162
 20
-89.15
 30
0.0
 11
-1.580487804878064
 21
-89.15
 31
0.0
  0
LINE
  5
1DE
330
1F
100
AcDbEntity
  8
0
370
    40
100
AcDbLine
 10
-9.750000000000015
 20
-89.15
 30
0.0
 11
-10.40868863285964
 21
-90.11607666152745
 31
0.0
  0
LINE
  5
1DF
330
1F
100
AcDbEntity
  8
0
370
    40
100
AcDbLine
 10
-9.041311367842839
 20
-90.18940999486076
 30
0.0
 11
-9.750000000000015
 21
-89.15
 31
0.0
  0
LINE
  5
1E0
330
1F
100
AcDbEntity
  8
0
370
    40
100
AcDbLine
 10
-8.250000000000015
 20
-89.15
 30
0.0
 11
-8.958688633562085
 21
-90.18940999486076
 31
0.0
  0
LINE
  5
1E1
330
1F
100
AcDbEntity
  8
0
370
    40
100
AcDbLine
 10
-7.541311367842843
 20
-90.18940999486078
 30
0.0
 11
-8.250000000000015
 21
-89.15
 31
0.0
  0
LINE
  5
1E2
330
1F
100
AcDbEntity
  8
0
370
    40
100
AcDbLine
 10
-6.750000000000015
 20
-89.15
 30
0.0
 11
-7.458688633562089
 21
-90.18940999486078
 31
0.0
  0
LINE
  5
1E3
330
1F
100
AcDbEntity
  8
0
370
    40
100
AcDbLine
 10
-6.04131136784284
 20
-90.18940999486078
 30
0.0
 11
-6.750000000000015
 21
-89.15
 31
0.0
  0
LINE
  5
1E4
330
1F
100
AcDbEntity
  8
0
370
    40
100
AcDbLine
 10
-5.250000000000015
 20
-89.15
 30
0.0
 11
-5.958688633562086
 21
-90.18940999486078
 31
0.0
  0
LINE
  5
1E5
330
1F
100
AcDbEntity
  8
0
370
    40
100
AcDbLine
 10
-4.541311367842842
 20
-90.18940999486078
 30
0.0
 11
-5.250000000000015
 21
-89.15
 31
0.0
  0
LINE
  5
1E6
330
1F
100
AcDbEntity
  8
0
370
    40
100
AcDbLine
 10
-3.04131136784284
 20
-90.18940999486078
 30
0.0
 11
-3.750000000000016
 21
-89.15
 31
0.0
  0
LINE
  5
1E7
330
1F
100
AcDbEntity
  8
0
370
    40
100
AcDbLine
 10
-3.750000000000016
 20
-89.15
 30
0.0
 11
-4.458688633562088
 21
-90.18940999486078
 31
0.0
  0
LINE
  5
1E8
330
1F
100
AcDbEntity
  8
0
370
    40
100
AcDbLine
 10
-2.250000000000016
 20
-89.15
 30
0.0
 11
-2.958688633562085
 21
-90.18940999486078
 31
0.0
  0
LINE
  5
1E9
330
1F
100
AcDbEntity
  8
0
370
    40
100
AcDbLine
 10
-1.60474718731043
 20
-90.09637079194474
 30
0.0
 11
-2.250000000000016
 21
-89.15
 31
0.0
  0
LINE
  5
1EA
330
1F
100
AcDbEntity
  8
0
100
AcDbLine
 10
-10.50000000000001
 20
-80.0
 30
0.0
 11
-9.750000000000015
 21
-89.15
 31
0.0
  0
ARC
  5
1EB
330
1F
100
AcDbEntity
  8
0
370
    40
100
AcDbCircle
 10
-7.500000000702466
 20
-90.16124315362871
 30
0.0
 40
0.05
100
AcDbArc
 50
214.286876977209
 51
325.713123022791
  0
ARC
  5
1EC
330
1F
100
AcDbEntity
  8
0
370
    40
100
AcDbCircle
 10
-9.000000000702462
 20
-90.16124315362871
 30
0.0
 40
0.05
100
AcDbArc
 50
214.286876977209
 51
325.713123022791
  0
ARC
  5
1ED
330
1F
100
AcDbEntity
  8
0
370
    40
100
AcDbCircle
 10
-10.45000000000001
 20
-90.08790982029537
 30
0.0
 40
0.05
100
AcDbArc
 50
180.0
 51
325.713123022791
  0
ARC
  5
1EE
330
1F
100
AcDbEntity
  8
0
370
    40
100
AcDbCircle
 10
-1.563435820170052
 20
-90.06820395071265
 30
0.0
 40
0.05
100
AcDbArc
 50
214.286876977209
 51
4.18491612511837
  0
ARC
  5
1EF
330
1F
100
AcDbEntity
  8
0
370
    40
100
AcDbCircle
 10
-3.000000000702462
 20
-90.16124315362871
 30
0.0
 40
0.05
100
AcDbArc
 50
214.286876977209
 51
325.713123022791
  0
ARC
  5
1F0
330
1F
100
AcDbEntity
  8
0
370
    40
100
AcDbCircle
 10
-4.500000000702465
 20
-90.16124315362871
 30
0.0
 40
0.05
100
AcDbArc
 50
214.286876977209
 51
325.713123022791
  0
ARC
  5
1F1
330
1F
100
AcDbEntity
  8
0
370
    40
100
AcDbCircle
 10
-6.000000000702463
 20
-90.16124315362871
 30
0.0
 40
0.05
100
AcDbArc
 50
214.286876977209
 51
325.713123022791
  0
DIMENSION
  5
1F6
102
{ACAD_XDICTIONARY
360
203
102
}
102
{ACAD_REACTORS
330
20D
102
}
330
1F
100
AcDbEntity
  8
0
100
AcDbDimension
  2
*D1
 10
219.5028157188797
 20
-40.00000000000004
 30
0.0
 11
219.5028157188797
 21
-20.02001969069261
 31
0.0
 70
   160
 71
     5
 42
40.0
  3
ISO-25
100
AcDbAlignedDimension
 13
194.5
 23
-0.0000000000000357
 33
0.0
 14
194.5
 24
-40.00000000000003
 34
0.0
 50
270.0
100
AcDbRotatedDimension
1001
ACAD
1000
DSTYLE
1002
{
1070
   140
1040
10.0
1070
   179
1070
     2
1070
   271
1070
     4
1070
   272
1070
     4
1070
   276
1070
     2
1002
}
  0
DIMENSION
  5
20E
102
{ACAD_XDICTIONARY
360
21B
102
}
102
{ACAD_REACTORS
330
225
102
}
330
1F
100
AcDbEntity
  8
0
100
AcDbDimension
  2
*D2
 10
213.8072276323857
 20
-90.00000000000005
 30
0.0
 11
213.8072276323858
 21
-79.94690547628795
 31
0.0
 70
   160
 71
     5
 42
20.0
  3
ISO-25
100
AcDbAlignedDimension
 13
194.5
 23
-70.00000000000004
 33
0.0
 14
194.5
 24
-90.00000000000005
 34
0.0
 50
270.0
100
AcDbRotatedDimension
1001
ACAD
1000
DSTYLE
1002
{
1070
   140
1040
10.0
1070
   179
1070
     2
1070
   271
1070
     4
1070
   272
1070
     4
1070
   276
1070
     2
1002
}
  0
DIMENSION
  5
226
102
{ACAD_XDICTIONARY
360
233
102
}
102
{ACAD_REACTORS
330
23D
102
}
330
1F
100
AcDbEntity
  8
0
100
AcDbDimension
  2
*D3
 10
0.000000000000001
 20
16.92159588410127
 30
0.0
 11
97.35507340150377
 21
16.92159588410127
 31
0.0
 70
   160
 71
     5
 42
194.5
  3
ISO-25
100
AcDbAlignedDimension
 13
194.5
 23
-0.0000000000000357
 33
0.0
 14
0.0
 24
0.0
 34
0.0
100
AcDbRotatedDimension
1001
ACAD
1000
DSTYLE
1002
{
1070
   140
1040
10.0
1070
   179
1070
     2
1070
   271
1070
     4
1070
   272
1070
     4
1070
   276
1070
     2
1002
}
  0
MTEXT
  5
2C1
330
1F
100
AcDbEntity
  8
0
100
AcDbMText
 10
-9.584400712544891
 20
-46.59390494779688
 30
0.0
 40
10.0
 41
45.25999999999999
 71
     1
 72
     5
  1
\A1;G{\H0.7x;\S1#2;}"
 73
     1
 44
1.0
  0
ENDSEC
  0
SECTION
  2
OBJECTS
  0
DICTIONARY
  5
C
330
0
100
AcDbDictionary
281
     1
  3
ACAD_BACKGROUND
350
31A
  3
ACAD_COLOR
350
2EF
  3
ACAD_GROUP
350
D
  3
ACAD_LAYOUT
350
1A
  3
ACAD_MATERIAL
350
2C5
  3
ACAD_MLEADERSTYLE
350
314
  3
ACAD_MLINESTYLE
350
17
  3
ACAD_PLOTSETTINGS
350
19
  3
ACAD_PLOTSTYLENAME
350
E
  3
ACAD_SCALELIST
350
2F2
  3
ACAD_TABLESTYLE
350
2F0
  3
ACAD_VISUALSTYLE
350
2DE
  3
ACDB_RECOMPOSE_DATA
350
3C3
  3
AcDbVariableDictionary
350
5E
  3
AcmDictionary
350
37B
  3
AMG
350
31E
  3
AMGSNAPSETTINGS
350
3B4
  0
DICTIONARY
  5
3BB
330
10
100
AcDbDictionary
280
     1
281
     1
  3
ADSK_XREC_LAYER_RECONCILED
360
3BC
  0
DICTIONARY
  5
203
330
1F6
100
AcDbDictionary
280
     1
281
     1
  3
ACAD_DIMASSOC
360
20D
  0
DICTIONARY
  5
21B
330
20E
100
AcDbDictionary
280
     1
281
     1
  3
ACAD_DIMASSOC
360
225
  0
DICTIONARY
  5
233
330
226
100
AcDbDictionary
280
     1
281
     1
  3
ACAD_DIMASSOC
360
23D
  0
DICTIONARY
  5
31A
102
{ACAD_REACTORS
330
C
102
}
330
C
100
AcDbDictionary
281
     1
  0
DICTIONARY
  5
2EF
102
{ACAD_REACTORS
330
C
102
}
330
C
100
AcDbDictionary
281
     1
  0
DICTIONARY
  5
D
102
{ACAD_REACTORS
330
C
102
}
330
C
100
AcDbDictionary
281
     1
  0
DICTIONARY
  5
1A
102
{ACAD_REACTORS
330
C
102
}
330
C
100
AcDbDictionary
281
     1
  3
Layout1
350
51
  3
Layout2
350
56
  3
Model
350
22
  0
DICTIONARY
  5
2C5
102
{ACAD_REACTORS
330
C
102
}
330
C
100
AcDbDictionary
281
     1
  3
ByBlock
350
2CE
  3
ByLayer
350
2C6
  3
Global
350
2D6
  0
DICTIONARY
  5
314
102
{ACAD_REACTORS
330
C
102
}
330
C
100
AcDbDictionary
281
     1
  3
Standard
350
315
  0
DICTIONARY
  5
17
102
{ACAD_REACTORS
330
C
102
}
330
C
100
AcDbDictionary
281
     1
  3
Standard
350
18
  0
DICTIONARY
  5
19
102
{ACAD_REACTORS
330
C
102
}
330
C
100
AcDbDictionary
281
     1
  0
ACDBDICTIONARYWDFLT
  5
E
102
{ACAD_REACTORS
330
C
102
}
330
C
100
AcDbDictionary
281
     1
  3
Normal
350
F
100
AcDbDictionaryWithDefault
340
F
  0
DICTIONARY
  5
2F2
102
{ACAD_REACTORS
330
C
102
}
330
C
100
AcDbDictionary
281
     1
  3
A0
350
2F3
  3
A1
350
2F4
  3
A2
350
2F5
  3
A3
350
2F6
  3
A4
350
2F7
  3
A5
350
2F8
  3
A6
350
2F9
  3
A7
350
2FA
  3
A8
350
2FB
  3
A9
350
2FC
  3
B0
350
2FD
  3
B1
350
2FE
  3
B2
350
2FF
  3
B3
350
300
  3
B4
350
301
  3
B5
350
302
  3
B6
350
303
  3
B7
350
304
  3
B8
350
305
  3
B9
350
306
  3
C0
350
307
  3
C1
350
308
  3
C2
350
309
  3
C3
350
30A
  3
C4
350
30B
  3
C5
350
30C
  3
C6
350
30D
  3
C7
350
30E
  3
C8
350
30F
  3
C9
350
310
  3
D0
350
311
  3
D1
350
312
  3
D2
350
313
  0
DICTIONARY
  5
2F0
102
{ACAD_REACTORS
330
C
102
}
330
C
100
AcDbDictionary
281
     1
  3
Standard
350
2F1
  0
DICTIONARY
  5
2DE
102
{ACAD_REACTORS
330
C
102
}
330
C
100
AcDbDictionary
281
     1
  3
*A1
350
319
  3
*A3
350
3C0
  3
2dWireframe
350
2E4
  3
3D Hidden
350
2E6
  3
3dWireframe
350
2E5
  3
Basic
350
2E3
  3
Brighten
350
2EA
  3
ColorChange
350
2EE
  3
Conceptual
350
2E7
  3
Dim
350
2E9
  3
Facepattern
350
2ED
  3
Flat
350
2DF
  3
FlatWithEdges
350
2E0
  3
Gouraud
350
2E1
  3
GouraudWithEdges
350
2E2
  3
Linepattern
350
2EC
  3
Realistic
350
2E8
  3
Thicken
350
2EB
  0
XRECORD
  5
3C3
102
{ACAD_REACTORS
330
C
102
}
330
C
100
AcDbXrecord
280
     1
 90
        1
330
2F1
  0
DICTIONARY
  5
5E
102
{ACAD_REACTORS
330
C
102
}
330
C
100
AcDbDictionary
281
     1
  3
CANNOSCALE
350
3BF
  3
CMLEADERSTYLE
350
3BE
  3
CTABLESTYLE
350
3BD
  3
DIMASSOC
350
5F
  3
HIDETEXT
350
63
  0
DICTIONARY
  5
37B
102
{ACAD_REACTORS
330
C
102
}
330
C
100
AcDbDictionary
281
     1
  3
AcmStdDictionary
350
386
  3
AMDTSECTSYM_ARROWCOLOR
350
39D
  0
DICTIONARY
  5
31E
102
{ACAD_REACTORS
330
C
102
}
330
C
100
AcDbDictionary
281
     1
  0
DICTIONARY
  5
3B4
102
{ACAD_REACTORS
330
C
102
}
330
C
100
AcDbDictionary
281
     1
  0
XRECORD
  5
3BC
102
{ACAD_REACTORS
330
3BB
102
}
330
3BB
100
AcDbXrecord
280
     1
290
     1
  0
DIMASSOC
  5
20D
102
{ACAD_REACTORS
330
203
102
}
330
203
100
AcDbDimAssoc
330
1F6
 90
        3
 70
     0
 71
     0
  1
AcDbOsnapPointRef
 72
     1
331
6E
 73
     2
 91
        3
 40
1.0
 10
194.5
 20
-0.0000000000000357
 30
0.0
 75
     0
  1
AcDbOsnapPointRef
 72
     1
331
6E
 73
     2
 91
        2
 40
1.0
 10
194.5
 20
-40.00000000000003
 30
0.0
 75
     0
  0
DIMASSOC
  5
225
102
{ACAD_REACTORS
330
21B
102
}
330
21B
100
AcDbDimAssoc
330
20E
 90
        3
 70
     0
 71
     0
  1
AcDbOsnapPointRef
 72
    13
331
183
 73
     2
 91
        0
 40
0.0
 10
194.5
 20
-70.00000000000004
 30
0.0
 75
     0
  1
AcDbOsnapPointRef
 72
    13
331
186
 73
     2
 91
        0
 40
0.0
 10
194.5
 20
-90.00000000000005
 30
0.0
 75
     0
  0
DIMASSOC
  5
23D
102
{ACAD_REACTORS
330
233
102
}
330
233
100
AcDbDimAssoc
330
226
 90
        3
 70
     0
 71
     0
  1
AcDbOsnapPointRef
 72
     1
331
6E
 73
     2
 91
        3
 40
1.0
 10
194.5
 20
-0.0000000000000357
 30
0.0
 75
     0
  1
AcDbOsnapPointRef
 72
    13
331
6E
 73
     2
 91
        1
 40
0.0
 10
0.0
 20
0.0
 30
0.0
 75
     0
  0
LAYOUT
  5
51
102
{ACAD_REACTORS
330
1A
102
}
330
1A
100
AcDbPlotSettings
  1

  2
None
  4

  6

 40
0.0
 41
0.0
 42
0.0
 43
0.0
 44
0.0
 45
0.0
 46
0.0
 47
0.0
 48
0.0
 49
0.0
140
0.0
141
0.0
142
1.0
143
1.0
 70
   688
 72
     0
 73
     0
 74
     5
  7

 75
    16
147
1.0
 76
     0
 77
     2
 78
   300
148
0.0
149
0.0
100
AcDbLayout
  1
Layout1
 70
     1
 71
     1
 10
0.0
 20
0.0
 11
12.0
 21
9.0
 12
0.0
 22
0.0
 32
0.0
 14
0.0
 24
0.0
 34
0.0
 15
0.0
 25
0.0
 35
0.0
146
0.0
 13
0.0
 23
0.0
 33
0.0
 16
1.0
 26
0.0
 36
0.0
 17
0.0
 27
1.0
 37
0.0
 76
     0
330
50
  0
LAYOUT
  5
56
102
{ACAD_REACTORS
330
1A
102
}
330
1A
100
AcDbPlotSettings
  1

  2
None
  4

  6

 40
0.0
 41
0.0
 42
0.0
 43
0.0
 44
0.0
 45
0.0
 46
0.0
 47
0.0
 48
0.0
 49
0.0
140
0.0
141
0.0
142
1.0
143
1.0
 70
   688
 72
     0
 73
     0
 74
     5
  7

 75
    16
147
1.0
 76
     0
 77
     2
 78
   300
148
0.0
149
0.0
100
AcDbLayout
  1
Layout2
 70
     1
 71
     2
 10
0.0
 20
0.0
 11
12.0
 21
9.0
 12
0.0
 22
0.0
 32
0.0
 14
0.0
 24
0.0
 34
0.0
 15
0.0
 25
0.0
 35
0.0
146
0.0
 13
0.0
 23
0.0
 33
0.0
 16
1.0
 26
0.0
 36
0.0
 17
0.0
 27
1.0
 37
0.0
 76
     0
330
55
  0
LAYOUT
  5
22
102
{ACAD_REACTORS
330
1A
102
}
330
1A
100
AcDbPlotSettings
  1

  2
none_device
  4
ANSI_A_(8.50_x_11.00_Inches)
  6

 40
6.349999904632568
 41
19.04999923706055
 42
6.350006103515625
 43
19.04998779296875
 44
215.8999938964844
 45
279.3999938964844
 46
0.0
 47
0.0
 48
0.0
 49
0.0
140
0.0
141
0.0
142
1.0
143
78.436453180766
 70
 11952
 72
     0
 73
     1
 74
     0
  7

 75
     0
147
0.0127491741332998
 76
     0
 77
     2
 78
   300
148
0.0
149
0.0
100
AcDbLayout
  1
Model
 70
     1
 71
     0
 10
0.0
 20
0.0
 11
12.0
 21
9.0
 12
0.0
 22
0.0
 32
0.0
 14
0.0
 24
0.0
 34
0.0
 15
0.0
 25
0.0
 35
0.0
146
0.0
 13
0.0
 23
0.0
 33
0.0
 16
1.0
 26
0.0
 36
0.0
 17
0.0
 27
1.0
 37
0.0
 76
     0
330
1F
331
2C3
  0
MATERIAL
  5
2CE
102
{ACAD_XDICTIONARY
360
2CF
102
}
102
{ACAD_REACTORS
330
2C5
102
}
330
2C5
100
AcDbMaterial
  1
ByBlock
 72
     0
 43
0.0008202099737533
 43
0.0
 43
0.0
 43
0.0
 43
0.0
 43
0.0008202099737533
 43
0.0
 43
0.0
 43
0.0
 43
0.0
 43
1.0
 43
0.0
 43
0.0
 43
0.0
 43
0.0
 43
1.0
 77
     0
 47
0.0008202099737533
 47
0.0
 47
0.0
 47
0.0
 47
0.0
 47
0.0008202099737533
 47
0.0
 47
0.0
 47
0.0
 47
0.0
 47
1.0
 47
0.0
 47
0.0
 47
0.0
 47
0.0
 47
1.0
171
     0
 49
0.0008202099737533
 49
0.0
 49
0.0
 49
0.0
 49
0.0
 49
0.0008202099737533
 49
0.0
 49
0.0
 49
0.0
 49
0.0
 49
1.0
 49
0.0
 49
0.0
 49
0.0
 49
0.0
 49
1.0
175
     0
142
0.0008202099737533
142
0.0
142
0.0
142
0.0
142
0.0
142
0.0008202099737533
142
0.0
142
0.0
142
0.0
142
0.0
142
1.0
142
0.0
142
0.0
142
0.0
142
0.0
142
1.0
179
     0
144
0.0008202099737533
144
0.0
144
0.0
144
0.0
144
0.0
144
0.0008202099737533
144
0.0
144
0.0
144
0.0
144
0.0
144
1.0
144
0.0
144
0.0
144
0.0
144
0.0
144
1.0
147
0.0008202099737533
147
0.0
147
0.0
147
0.0
147
0.0
147
0.0008202099737533
147
0.0
147
0.0
147
0.0
147
0.0
147
1.0
147
0.0
147
0.0
147
0.0
147
0.0
147
1.0
  0
MATERIAL
  5
2C6
102
{ACAD_XDICTIONARY
360
2C7
102
}
102
{ACAD_REACTORS
330
2C5
102
}
330
2C5
100
AcDbMaterial
  1
ByLayer
 72
     0
 43
0.0008202099737533
 43
0.0
 43
0.0
 43
0.0
 43
0.0
 43
0.0008202099737533
 43
0.0
 43
0.0
 43
0.0
 43
0.0
 43
1.0
 43
0.0
 43
0.0
 43
0.0
 43
0.0
 43
1.0
 77
     0
 47
0.0008202099737533
 47
0.0
 47
0.0
 47
0.0
 47
0.0
 47
0.0008202099737533
 47
0.0
 47
0.0
 47
0.0
 47
0.0
 47
1.0
 47
0.0
 47
0.0
 47
0.0
 47
0.0
 47
1.0
171
     0
 49
0.0008202099737533
 49
0.0
 49
0.0
 49
0.0
 49
0.0
 49
0.0008202099737533
 49
0.0
 49
0.0
 49
0.0
 49
0.0
 49
1.0
 49
0.0
 49
0.0
 49
0.0
 49
0.0
 49
1.0
175
     0
142
0.0008202099737533
142
0.0
142
0.0
142
0.0
142
0.0
142
0.0008202099737533
142
0.0
142
0.0
142
0.0
142
0.0
142
1.0
142
0.0
142
0.0
142
0.0
142
0.0
142
1.0
179
     0
144
0.0008202099737533
144
0.0
144
0.0
144
0.0
144
0.0
144
0.0008202099737533
144
0.0
144
0.0
144
0.0
144
0.0
144
1.0
144
0.0
144
0.0
144
0.0
144
0.0
144
1.0
147
0.0008202099737533
147
0.0
147
0.0
147
0.0
147
0.0
147
0.0008202099737533
147
0.0
147
0.0
147
0.0
147
0.0
147
1.0
147
0.0
147
0.0
147
0.0
147
0.0
147
1.0
  0
MATERIAL
  5
2D6
102
{ACAD_XDICTIONARY
360
2D7
102
}
102
{ACAD_REACTORS
330
2C5
102
}
330
2C5
100
AcDbMaterial
  1
Global
 72
     0
 43
0.0008202099737533
 43
0.0
 43
0.0
 43
0.0
 43
0.0
 43
0.0008202099737533
 43
0.0
 43
0.0
 43
0.0
 43
0.0
 43
1.0
 43
0.0
 43
0.0
 43
0.0
 43
0.0
 43
1.0
 77
     0
 47
0.0008202099737533
 47
0.0
 47
0.0
 47
0.0
 47
0.0
 47
0.0008202099737533
 47
0.0
 47
0.0
 47
0.0
 47
0.0
 47
1.0
 47
0.0
 47
0.0
 47
0.0
 47
0.0
 47
1.0
171
     0
 49
0.0008202099737533
 49
0.0
 49
0.0
 49
0.0
 49
0.0
 49
0.0008202099737533
 49
0.0
 49
0.0
 49
0.0
 49
0.0
 49
1.0
 49
0.0
 49
0.0
 49
0.0
 49
0.0
 49
1.0
175
     0
142
0.0008202099737533
142
0.0
142
0.0
142
0.0
142
0.0
142
0.0008202099737533
142
0.0
142
0.0
142
0.0
142
0.0
142
1.0
142
0.0
142
0.0
142
0.0
142
0.0
142
1.0
179
     0
144
0.0008202099737533
144
0.0
144
0.0
144
0.0
144
0.0
144
0.0008202099737533
144
0.0
144
0.0
144
0.0
144
0.0
144
1.0
144
0.0
144
0.0
144
0.0
144
0.0
144
1.0
147
0.0008202099737533
147
0.0
147
0.0
147
0.0
147
0.0
147
0.0008202099737533
147
0.0
147
0.0
147
0.0
147
0.0
147
1.0
147
0.0
147
0.0
147
0.0
147
0.0
147
1.0
  0
MLEADERSTYLE
  5
315
102
{ACAD_REACTORS
330
314
102
}
330
314
100
AcDbMLeaderStyle
170
     2
171
     1
172
     0
 90
        2
 40
0.0
 41
0.0
173
     1
 91
-1056964608
340
14
 92
       -2
290
     1
 42
2.0
291
     1
 43
0.36
  3
Standard
 44
4.0
300

342
11
174
     1
178
     6
175
     1
176
     0
 93
-1056964608
 45
4.0
292
     0
297
     0
 46
4.0
 94
-1056964608
 47
1.0
 49
1.0
140
1.0
293
     1
141
0.0
294
     1
177
     0
142
1.0
295
     0
296
     0
143
0.125
1001
ACAD_MLEADERVER
1070
     2
  0
MLINESTYLE
  5
18
102
{ACAD_REACTORS
330
17
102
}
330
17
100
AcDbMlineStyle
  2
STANDARD
 70
     0
  3

 62
   256
 51
90.0
 52
90.0
 71
     2
 49
0.5
 62
   256
  6
BYLAYER
 49
-0.5
 62
   256
  6
BYLAYER
  0
ACDBPLACEHOLDER
  5
F
102
{ACAD_REACTORS
330
E
102
}
330
E
  0
SCALE
  5
2F3
102
{ACAD_REACTORS
330
2F2
102
}
330
2F2
100
AcDbScale
 70
     0
300
1:1
140
1.0
141
1.0
290
     1
  0
SCALE
  5
2F4
102
{ACAD_REACTORS
330
2F2
102
}
330
2F2
100
AcDbScale
 70
     0
300
1:2
140
1.0
141
2.0
290
     0
  0
SCALE
  5
2F5
102
{ACAD_REACTORS
330
2F2
102
}
330
2F2
100
AcDbScale
 70
     0
300
1:4
140
1.0
141
4.0
290
     0
  0
SCALE
  5
2F6
102
{ACAD_REACTORS
330
2F2
102
}
330
2F2
100
AcDbScale
 70
     0
300
1:5
140
1.0
141
5.0
290
     0
  0
SCALE
  5
2F7
102
{ACAD_REACTORS
330
2F2
102
}
330
2F2
100
AcDbScale
 70
     0
300
1:8
140
1.0
141
8.0
290
     0
  0
SCALE
  5
2F8
102
{ACAD_REACTORS
330
2F2
102
}
330
2F2
100
AcDbScale
 70
     0
300
1:10
140
1.0
141
10.0
290
     0
  0
SCALE
  5
2F9
102
{ACAD_REACTORS
330
2F2
102
}
330
2F2
100
AcDbScale
 70
     0
300
1:16
140
1.0
141
16.0
290
     0
  0
SCALE
  5
2FA
102
{ACAD_REACTORS
330
2F2
102
}
330
2F2
100
AcDbScale
 70
     0
300
1:20
140
1.0
141
20.0
290
     0
  0
SCALE
  5
2FB
102
{ACAD_REACTORS
330
2F2
102
}
330
2F2
100
AcDbScale
 70
     0
300
1:30
140
1.0
141
30.0
290
     0
  0
SCALE
  5
2FC
102
{ACAD_REACTORS
330
2F2
102
}
330
2F2
100
AcDbScale
 70
     0
300
1:40
140
1.0
141
40.0
290
     0
  0
SCALE
  5
2FD
102
{ACAD_REACTORS
330
2F2
102
}
330
2F2
100
AcDbScale
 70
     0
300
1:50
140
1.0
141
50.0
290
     0
  0
SCALE
  5
2FE
102
{ACAD_REACTORS
330
2F2
102
}
330
2F2
100
AcDbScale
 70
     0
300
1:100
140
1.0
141
100.0
290
     0
  0
SCALE
  5
2FF
102
{ACAD_REACTORS
330
2F2
102
}
330
2F2
100
AcDbScale
 70
     0
300
2:1
140
2.0
141
1.0
290
     0
  0
SCALE
  5
300
102
{ACAD_REACTORS
330
2F2
102
}
330
2F2
100
AcDbScale
 70
     0
300
4:1
140
4.0
141
1.0
290
     0
  0
SCALE
  5
301
102
{ACAD_REACTORS
330
2F2
102
}
330
2F2
100
AcDbScale
 70
     0
300
8:1
140
8.0
141
1.0
290
     0
  0
SCALE
  5
302
102
{ACAD_REACTORS
330
2F2
102
}
330
2F2
100
AcDbScale
 70
     0
300
10:1
140
10.0
141
1.0
290
     0
  0
SCALE
  5
303
102
{ACAD_REACTORS
330
2F2
102
}
330
2F2
100
AcDbScale
 70
     0
300
100:1
140
100.0
141
1.0
290
     0
  0
SCALE
  5
304
102
{ACAD_REACTORS
330
2F2
102
}
330
2F2
100
AcDbScale
 70
     0
300
1/128" = 1'-0"
140
0.0078125
141
12.0
290
     0
  0
SCALE
  5
305
102
{ACAD_REACTORS
330
2F2
102
}
330
2F2
100
AcDbScale
 70
     0
300
1/64" = 1'-0"
140
0.015625
141
12.0
290
     0
  0
SCALE
  5
306
102
{ACAD_REACTORS
330
2F2
102
}
330
2F2
100
AcDbScale
 70
     0
300
1/32" = 1'-0"
140
0.03125
141
12.0
290
     0
  0
SCALE
  5
307
102
{ACAD_REACTORS
330
2F2
102
}
330
2F2
100
AcDbScale
 70
     0
300
1/16" = 1'-0"
140
0.0625
141
12.0
290
     0
  0
SCALE
  5
308
102
{ACAD_REACTORS
330
2F2
102
}
330
2F2
100
AcDbScale
 70
     0
300
3/32" = 1'-0"
140
0.09375
141
12.0
290
     0
  0
SCALE
  5
309
102
{ACAD_REACTORS
330
2F2
102
}
330
2F2
100
AcDbScale
 70
     0
300
1/8" = 1'-0"
140
0.125
141
12.0
290
     0
  0
SCALE
  5
30A
102
{ACAD_REACTORS
330
2F2
102
}
330
2F2
100
AcDbScale
 70
     0
300
3/16" = 1'-0"
140
0.1875
141
12.0
290
     0
  0
SCALE
  5
30B
102
{ACAD_REACTORS
330
2F2
102
}
330
2F2
100
AcDbScale
 70
     0
300
1/4" = 1'-0"
140
0.25
141
12.0
290
     0
  0
SCALE
  5
30C
102
{ACAD_REACTORS
330
2F2
102
}
330
2F2
100
AcDbScale
 70
     0
300
3/8" = 1'-0"
140
0.375
141
12.0
290
     0
  0
SCALE
  5
30D
102
{ACAD_REACTORS
330
2F2
102
}
330
2F2
100
AcDbScale
 70
     0
300
1/2" = 1'-0"
140
0.5
141
12.0
290
     0
  0
SCALE
  5
30E
102
{ACAD_REACTORS
330
2F2
102
}
330
2F2
100
AcDbScale
 70
     0
300
3/4" = 1'-0"
140
0.75
141
12.0
290
     0
  0
SCALE
  5
30F
102
{ACAD_REACTORS
330
2F2
102
}
330
2F2
100
AcDbScale
 70
     0
300
1" = 1'-0"
140
1.0
141
12.0
290
     0
  0
SCALE
  5
310
102
{ACAD_REACTORS
330
2F2
102
}
330
2F2
100
AcDbScale
 70
     0
300
1-1/2" = 1'-0"
140
1.5
141
12.0
290
     0
  0
SCALE
  5
311
102
{ACAD_REACTORS
330
2F2
102
}
330
2F2
100
AcDbScale
 70
     0
300
3" = 1'-0"
140
3.0
141
12.0
290
     0
  0
SCALE
  5
312
102
{ACAD_REACTORS
330
2F2
102
}
330
2F2
100
AcDbScale
 70
     0
300
6" = 1'-0"
140
6.0
141
12.0
290
     0
  0
SCALE
  5
313
102
{ACAD_REACTORS
330
2F2
102
}
330
2F2
100
AcDbScale
 70
     0
300
1'-0" = 1'-0"
140
12.0
141
12.0
290
     0
  0
TABLESTYLE
  5
2F1
102
{ACAD_XDICTIONARY
360
3C1
102
}
102
{ACAD_REACTORS
330
2F0
102
}
330
2F0
100
AcDbTableStyle
  3
Standard
 70
     0
 71
     0
 40
1.5
 41
1.5
280
     0
281
     0
  7
Standard
140
4.5
170
     2
 62
     0
 63
     7
283
     0
274
    -2
284
     1
 64
     0
275
    -2
285
     1
 65
     0
276
    -2
286
     1
 66
     0
277
    -2
287
     1
 67
     0
278
    -2
288
     1
 68
     0
279
    -2
289
     1
 69
     0
  7
Standard
140
6.0
170
     5
 62
     0
 63
     7
283
     0
274
    -2
284
     1
 64
     0
275
    -2
285
     1
 65
     0
276
    -2
286
     1
 66
     0
277
    -2
287
     1
 67
     0
278
    -2
288
     1
 68
     0
279
    -2
289
     1
 69
     0
  7
Standard
140
4.5
170
     5
 62
     0
 63
     7
283
     0
274
    -2
284
     1
 64
     0
275
    -2
285
     1
 65
     0
276
    -2
286
     1
 66
     0
277
    -2
287
     1
 67
     0
278
    -2
288
     1
 68
     0
279
    -2
289
     1
 69
     0
  0
VISUALSTYLE
  5
319
102
{ACAD_REACTORS
330
2DE
102
}
330
2DE
100
AcDbVisualStyle
  2
*
 70
    10
 71
     0
 72
     2
 73
     0
 90
        0
 40
-0.6
 41
-30.0
 62
     5
 63
     7
421
 16777215
 74
     1
 91
        6
 64
     7
 65
   257
 75
     1
175
     1
 42
1.0
 92
        0
 66
   257
 43
1.0
 76
     1
 77
     6
 78
     2
 67
     7
 79
     1
170
     0
171
     0
290
     0
174
     0
 93
        1
 44
0.0
173
     0
291
     0
 45
0.0
1001
ACAD
1000
AcDbSavedByObjectVersion
1070
     0
  0
VISUALSTYLE
  5
3C0
102
{ACAD_REACTORS
330
2DE
102
}
330
2DE
100
AcDbVisualStyle
  2
*
 70
    10
 71
     0
 72
     2
 73
     0
 90
        0
 40
-0.6
 41
-30.0
 62
     5
 63
     7
421
 16777215
 74
     1
 91
        6
 64
     7
 65
   257
 75
     1
175
     1
 42
1.0
 92
        0
 66
   257
 43
1.0
 76
     1
 77
     6
 78
     2
 67
     7
 79
     1
170
     0
171
     0
290
     0
174
     0
 93
        1
 44
0.0
173
     0
291
     0
 45
0.0
1001
ACAD
1000
AcDbSavedByObjectVersion
1070
     0
  0
VISUALSTYLE
  5
2E4
102
{ACAD_REACTORS
330
2DE
102
}
330
2DE
100
AcDbVisualStyle
  2
2dWireframe
 70
     4
 71
     0
 72
     2
 73
     0
 90
        0
 40
-0.6
 41
-30.0
 62
     5
 63
     7
421
 16777215
 74
     1
 91
        4
 64
     7
 65
   257
 75
     1
175
     1
 42
1.0
 92
        0
 66
   257
 43
1.0
 76
     1
 77
     6
 78
     2
 67
     7
 79
     5
170
     0
171
     0
290
     0
174
     0
 93
        1
 44
0.0
173
     0
291
     0
 45
0.0
1001
ACAD
1000
AcDbSavedByObjectVersion
1070
     0
  0
VISUALSTYLE
  5
2E6
102
{ACAD_REACTORS
330
2DE
102
}
330
2DE
100
AcDbVisualStyle
  2
3D Hidden
 70
     6
 71
     1
 72
     2
 73
     2
 90
        0
 40
-0.6
 41
-30.0
 62
     5
 63
     7
421
 16777215
 74
     2
 91
        2
 64
     7
 65
   257
 75
     2
175
     1
 42
40.0
 92
        0
 66
   257
 43
1.0
 76
     1
 77
     6
 78
     2
 67
     7
 79
     3
170
     0
171
     0
290
     0
174
     0
 93
        1
 44
0.0
173
     0
291
     0
 45
0.0
1001
ACAD
1000
AcDbSavedByObjectVersion
1070
     0
  0
VISUALSTYLE
  5
2E5
102
{ACAD_REACTORS
330
2DE
102
}
330
2DE
100
AcDbVisualStyle
  2
3dWireframe
 70
     5
 71
     0
 72
     2
 73
     0
 90
        0
 40
-0.6
 41
-30.0
 62
     5
 63
     7
421
 16777215
 74
     1
 91
        4
 64
     7
 65
   257
 75
     1
175
     1
 42
1.0
 92
        0
 66
   257
 43
1.0
 76
     1
 77
     6
 78
     2
 67
     7
 79
     5
170
     0
171
     0
290
     0
174
     0
 93
        1
 44
0.0
173
     0
291
     0
 45
0.0
1001
ACAD
1000
AcDbSavedByObjectVersion
1070
     0
  0
VISUALSTYLE
  5
2E3
102
{ACAD_REACTORS
330
2DE
102
}
330
2DE
100
AcDbVisualStyle
  2
Basic
 70
     7
 71
     1
 72
     0
 73
     1
 90
        0
 40
-0.6
 41
-30.0
 62
     5
 63
     7
421
 16777215
 74
     0
 91
        4
 64
     7
 65
   257
 75
     1
175
     1
 42
1.0
 92
        8
 66
     7
 43
1.0
 76
     1
 77
     6
 78
     2
 67
     7
 79
     5
170
     0
171
     0
290
     0
174
     0
 93
        1
 44
0.0
173
     0
291
     1
 45
0.0
1001
ACAD
1000
AcDbSavedByObjectVersion
1070
     0
  0
VISUALSTYLE
  5
2EA
102
{ACAD_REACTORS
330
2DE
102
}
330
2DE
100
AcDbVisualStyle
  2
Brighten
 70
    12
 71
     2
 72
     2
 73
     0
 90
        0
 40
-0.6
 41
-30.0
 62
     5
 63
     7
421
 16777215
 74
     1
 91
        4
 64
     7
 65
   257
 75
     1
175
     1
 42
1.0
 92
        8
 66
     7
 43
1.0
 76
     1
 77
     6
 78
     2
 67
     7
 79
     5
170
     0
171
     0
290
     0
174
     0
 93
        1
 44
50.0
173
     0
291
     1
 45
0.0
1001
ACAD
1000
AcDbSavedByObjectVersion
1070
     0
  0
VISUALSTYLE
  5
2EE
102
{ACAD_REACTORS
330
2DE
102
}
330
2DE
100
AcDbVisualStyle
  2
ColorChange
 70
    16
 71
     2
 72
     2
 73
     3
 90
        0
 40
-0.6
 41
-30.0
 62
     5
 63
     8
421
  8421504
 74
     1
 91
        4
 64
     7
 65
   257
 75
     1
175
     1
 42
1.0
 92
        8
 66
     8
424
  8421504
 43
1.0
 76
     1
 77
     6
 78
     2
 67
     7
 79
     5
170
     0
171
     0
290
     0
174
     0
 93
        1
 44
0.0
173
     0
291
     1
 45
0.0
1001
ACAD
1000
AcDbSavedByObjectVersion
1070
     0
  0
VISUALSTYLE
  5
2E7
102
{ACAD_REACTORS
330
2DE
102
}
330
2DE
100
AcDbVisualStyle
  2
Conceptual
 70
     9
 71
     3
 72
     2
 73
     0
 90
        0
 40
-0.6
 41
-30.0
 62
     5
 63
     7
421
 16777215
 74
     2
 91
        2
 64
     7
 65
   257
 75
     1
175
     1
 42
40.0
 92
        8
 66
     7
 43
1.0
 76
     1
 77
     6
 78
     2
 67
     7
 79
     3
170
     0
171
     0
290
     0
174
     0
 93
        1
 44
0.0
173
     0
291
     0
 45
0.0
1001
ACAD
1000
AcDbSavedByObjectVersion
1070
     0
  0
VISUALSTYLE
  5
2E9
102
{ACAD_REACTORS
330
2DE
102
}
330
2DE
100
AcDbVisualStyle
  2
Dim
 70
    11
 71
     2
 72
     2
 73
     0
 90
        0
 40
-0.6
 41
-30.0
 62
     5
 63
     7
421
 16777215
 74
     1
 91
        4
 64
     7
 65
   257
 75
     1
175
     1
 42
1.0
 92
        8
 66
     7
 43
1.0
 76
     1
 77
     6
 78
     2
 67
     7
 79
     5
170
     0
171
     0
290
     0
174
     0
 93
        1
 44
-50.0
173
     0
291
     1
 45
0.0
1001
ACAD
1000
AcDbSavedByObjectVersion
1070
     0
  0
VISUALSTYLE
  5
2ED
102
{ACAD_REACTORS
330
2DE
102
}
330
2DE
100
AcDbVisualStyle
  2
Facepattern
 70
    15
 71
     2
 72
     2
 73
     0
 90
        0
 40
-0.6
 41
-30.0
 62
     5
 63
     7
421
 16777215
 74
     1
 91
        4
 64
     7
 65
   257
 75
     1
175
     1
 42
1.0
 92
        8
 66
     7
 43
1.0
 76
     1
 77
     6
 78
     2
 67
     7
 79
     5
170
     0
171
     0
290
     0
174
     0
 93
        1
 44
0.0
173
     0
291
     1
 45
0.0
1001
ACAD
1000
AcDbSavedByObjectVersion
1070
     0
  0
VISUALSTYLE
  5
2DF
102
{ACAD_REACTORS
330
2DE
102
}
330
2DE
100
AcDbVisualStyle
  2
Flat
 70
     0
 71
     2
 72
     1
 73
     1
 90
        2
 40
-0.6
 41
30.0
 62
     5
 63
     7
421
 16777215
 74
     0
 91
        4
 64
     7
 65
   257
 75
     1
175
     1
 42
1.0
 92
        8
 66
     7
 43
1.0
 76
     1
 77
     6
 78
     2
 67
     7
 79
     5
170
     0
171
     0
290
     0
174
     0
 93
       13
 44
0.0
173
     0
291
     1
 45
0.0
1001
ACAD
1000
AcDbSavedByObjectVersion
1070
     0
  0
VISUALSTYLE
  5
2E0
102
{ACAD_REACTORS
330
2DE
102
}
330
2DE
100
AcDbVisualStyle
  2
FlatWithEdges
 70
     1
 71
     2
 72
     1
 73
     1
 90
        2
 40
-0.6
 41
30.0
 62
     5
 63
     7
421
 16777215
 74
     1
 91
        4
 64
     7
 65
   257
 75
     1
175
     1
 42
1.0
 92
        0
 66
   257
 43
1.0
 76
     1
 77
     6
 78
     2
 67
     7
 79
     5
170
     0
171
     0
290
     0
174
     0
 93
       13
 44
0.0
173
     0
291
     1
 45
0.0
1001
ACAD
1000
AcDbSavedByObjectVersion
1070
     0
  0
VISUALSTYLE
  5
2E1
102
{ACAD_REACTORS
330
2DE
102
}
330
2DE
100
AcDbVisualStyle
  2
Gouraud
 70
     2
 71
     2
 72
     2
 73
     1
 90
        2
 40
-0.6
 41
30.0
 62
     5
 63
     7
421
 16777215
 74
     0
 91
        4
 64
     7
 65
   257
 75
     1
175
     1
 42
1.0
 92
        0
 66
     7
 43
1.0
 76
     1
 77
     6
 78
     2
 67
     7
 79
     5
170
     0
171
     0
290
     0
174
     0
 93
       13
 44
0.0
173
     0
291
     1
 45
0.0
1001
ACAD
1000
AcDbSavedByObjectVersion
1070
     0
  0
VISUALSTYLE
  5
2E2
102
{ACAD_REACTORS
330
2DE
102
}
330
2DE
100
AcDbVisualStyle
  2
GouraudWithEdges
 70
     3
 71
     2
 72
     2
 73
     1
 90
        2
 40
-0.6
 41
30.0
 62
     5
 63
     7
421
 16777215
 74
     1
 91
        4
 64
     7
 65
   257
 75
     1
175
     1
 42
1.0
 92
        0
 66
   257
 43
1.0
 76
     1
 77
     6
 78
     2
 67
     7
 79
     5
170
     0
171
     0
290
     0
174
     0
 93
       13
 44
0.0
173
     0
291
     1
 45
0.0
1001
ACAD
1000
AcDbSavedByObjectVersion
1070
     0
  0
VISUALSTYLE
  5
2EC
102
{ACAD_REACTORS
330
2DE
102
}
330
2DE
100
AcDbVisualStyle
  2
Linepattern
 70
    14
 71
     2
 72
     2
 73
     0
 90
        0
 40
-0.6
 41
-30.0
 62
     5
 63
     7
421
 16777215
 74
     1
 91
        4
 64
     7
 65
   257
 75
     7
175
     7
 42
1.0
 92
        8
 66
     7
 43
1.0
 76
     1
 77
     6
 78
     2
 67
     7
 79
     5
170
     0
171
     0
290
     0
174
     0
 93
        1
 44
0.0
173
     0
291
     1
 45
0.0
1001
ACAD
1000
AcDbSavedByObjectVersion
1070
     0
  0
VISUALSTYLE
  5
2E8
102
{ACAD_REACTORS
330
2DE
102
}
330
2DE
100
AcDbVisualStyle
  2
Realistic
 70
     8
 71
     2
 72
     2
 73
     0
 90
        0
 40
-0.6
 41
-30.0
 62
     5
 63
     7
421
 16777215
 74
     1
 91
        0
 64
     7
 65
   257
 75
     1
175
     1
 42
1.0
 92
        8
 66
     8
424
  7895160
 43
1.0
 76
     1
 77
     6
 78
     2
 67
     7
 79
     5
170
     0
171
     0
290
     0
174
     0
 93
       13
 44
0.0
173
     0
291
     0
 45
0.0
1001
ACAD
1000
AcDbSavedByObjectVersion
1070
     0
  0
VISUALSTYLE
  5
2EB
102
{ACAD_REACTORS
330
2DE
102
}
330
2DE
100
AcDbVisualStyle
  2
Thicken
 70
    13
 71
     2
 72
     2
 73
     0
 90
        0
 40
-0.6
 41
-30.0
 62
     5
 63
     7
421
 16777215
 74
     1
 91
        4
 64
     7
 65
   257
 75
     1
175
     1
 42
1.0
 92
       12
 66
     7
 43
1.0
 76
     1
 77
     6
 78
     2
 67
     7
 79
     5
170
     0
171
     0
290
     0
174
     0
 93
        1
 44
0.0
173
     0
291
     1
 45
0.0
1001
ACAD
1000
AcDbSavedByObjectVersion
1070
     0
  0
DICTIONARYVAR
  5
3BF
102
{ACAD_REACTORS
330
5E
102
}
330
5E
100
DictionaryVariables
280
     0
  1
1:1
  0
DICTIONARYVAR
  5
3BE
102
{ACAD_REACTORS
330
5E
102
}
330
5E
100
DictionaryVariables
280
     0
  1
STANDARD
  0
DICTIONARYVAR
  5
3BD
102
{ACAD_REACTORS
330
5E
102
}
330
5E
100
DictionaryVariables
280
     0
  1
STANDARD
  0
DICTIONARYVAR
  5
5F
102
{ACAD_REACTORS
330
5E
102
}
330
5E
100
DictionaryVariables
280
     0
  1
2
  0
DICTIONARYVAR
  5
63
102
{ACAD_REACTORS
330
5E
102
}
330
5E
100
DictionaryVariables
280
     0
  1
1
  0
DICTIONARY
  5
386
102
{ACAD_REACTORS
330
37B
102
}
330
37B
100
AcDbDictionary
281
     1
  0
XRECORD
  5
39D
102
{ACAD_REACTORS
330
37B
102
}
330
37B
100
AcDbXrecord
280
     1
 90
-1023410169
  0
DICTIONARY
  5
2CF
330
2CE
100
AcDbDictionary
280
     1
281
     1
  3
ACAD_XREC_ROUNDTRIP
360
3C5
  3
BUMPTILE
360
2D1
  3
DIFFUSETILE
360
2D0
  3
OPACITYTILE
360
2D4
  3
REFLECTIONTILE
360
2D3
  3
REFRACTIONTILE
360
2D5
  3
SPECULARTILE
360
2D2
  0
DICTIONARY
  5
2C7
330
2C6
100
AcDbDictionary
280
     1
281
     1
  3
ACAD_XREC_ROUNDTRIP
360
3C4
  3
BUMPTILE
360
2C9
  3
DIFFUSETILE
360
2C8
  3
OPACITYTILE
360
2CC
  3
REFLECTIONTILE
360
2CB
  3
REFRACTIONTILE
360
2CD
  3
SPECULARTILE
360
2CA
  0
DICTIONARY
  5
2D7
330
2D6
100
AcDbDictionary
280
     1
281
     1
  3
ACAD_XREC_ROUNDTRIP
360
3C6
  3
BUMPTILE
360
2D9
  3
DIFFUSETILE
360
2D8
  3
OPACITYTILE
360
2DC
  3
REFLECTIONTILE
360
2DB
  3
REFRACTIONTILE
360
2DD
  3
SPECULARTILE
360
2DA
  0
DICTIONARY
  5
3C1
330
2F1
100
AcDbDictionary
280
     1
281
     1
  3
ACAD_ROUNDTRIP_2008_TABLESTYLE_CELLSTYLEMAP
360
3C2
  3
ACAD_XREC_ROUNDTRIP
360
3C7
  0
XRECORD
  5
3C5
102
{ACAD_REACTORS
330
2CF
102
}
330
2CF
100
AcDbXrecord
280
     1
102
MATERIAL
148
0.0
149
0.0
149
0.0
 93
        0
 94
      127
282
     0
 72
     0
 77
     0
171
     0
175
     0
179
     0
273
     0
  0
XRECORD
  5
2D1
102
{ACAD_REACTORS
330
2CF
102
}
330
2CF
100
AcDbXrecord
280
     1
270
     1
271
     1
  0
XRECORD
  5
2D0
102
{ACAD_REACTORS
330
2CF
102
}
330
2CF
100
AcDbXrecord
280
     1
270
     1
271
     1
  0
XRECORD
  5
2D4
102
{ACAD_REACTORS
330
2CF
102
}
330
2CF
100
AcDbXrecord
280
     1
270
     1
271
     1
  0
XRECORD
  5
2D3
102
{ACAD_REACTORS
330
2CF
102
}
330
2CF
100
AcDbXrecord
280
     1
270
     1
271
     1
  0
XRECORD
  5
2D5
102
{ACAD_REACTORS
330
2CF
102
}
330
2CF
100
AcDbXrecord
280
     1
270
     1
271
     1
  0
XRECORD
  5
2D2
102
{ACAD_REACTORS
330
2CF
102
}
330
2CF
100
AcDbXrecord
280
     1
270
     1
271
     1
  0
XRECORD
  5
3C4
102
{ACAD_REACTORS
330
2C7
102
}
330
2C7
100
AcDbXrecord
280
     1
102
MATERIAL
148
0.0
149
0.0
149
0.0
 93
        0
 94
      127
282
     0
 72
     0
 77
     0
171
     0
175
     0
179
     0
273
     0
  0
XRECORD
  5
2C9
102
{ACAD_REACTORS
330
2C7
102
}
330
2C7
100
AcDbXrecord
280
     1
270
     1
271
     1
  0
XRECORD
  5
2C8
102
{ACAD_REACTORS
330
2C7
102
}
330
2C7
100
AcDbXrecord
280
     1
270
     1
271
     1
  0
XRECORD
  5
2CC
102
{ACAD_REACTORS
330
2C7
102
}
330
2C7
100
AcDbXrecord
280
     1
270
     1
271
     1
  0
XRECORD
  5
2CB
102
{ACAD_REACTORS
330
2C7
102
}
330
2C7
100
AcDbXrecord
280
     1
270
     1
271
     1
  0
XRECORD
  5
2CD
102
{ACAD_REACTORS
330
2C7
102
}
330
2C7
100
AcDbXrecord
280
     1
270
     1
271
     1
  0
XRECORD
  5
2CA
102
{ACAD_REACTORS
330
2C7
102
}
330
2C7
100
AcDbXrecord
280
     1
270
     1
271
     1
  0
XRECORD
  5
3C6
102
{ACAD_REACTORS
330
2D7
102
}
330
2D7
100
AcDbXrecord
280
     1
102
MATERIAL
148
0.0
149
0.0
149
0.0
 93
        0
 94
      127
282
     0
 72
     0
 77
     0
171
     0
175
     0
179
     0
273
     0
  0
XRECORD
  5
2D9
102
{ACAD_REACTORS
330
2D7
102
}
330
2D7
100
AcDbXrecord
280
     1
270
     1
271
     1
  0
XRECORD
  5
2D8
102
{ACAD_REACTORS
330
2D7
102
}
330
2D7
100
AcDbXrecord
280
     1
270
     1
271
     1
  0
XRECORD
  5
2DC
102
{ACAD_REACTORS
330
2D7
102
}
330
2D7
100
AcDbXrecord
280
     1
270
     1
271
     1
  0
XRECORD
  5
2DB
102
{ACAD_REACTORS
330
2D7
102
}
330
2D7
100
AcDbXrecord
280
     1
270
     1
271
     1
  0
XRECORD
  5
2DD
102
{ACAD_REACTORS
330
2D7
102
}
330
2D7
100
AcDbXrecord
280
     1
270
     1
271
     1
  0
XRECORD
  5
2DA
102
{ACAD_REACTORS
330
2D7
102
}
330
2D7
100
AcDbXrecord
280
     1
270
     1
271
     1
  0
CELLSTYLEMAP
  5
3C2
102
{ACAD_REACTORS
330
3C1
102
}
330
3C1
100
AcDbCellStyleMap
 90
        3
300
CELLSTYLE
  1
TABLEFORMAT_BEGIN
 90
        5
170
     1
 91
        0
 92
    32768
 62
   257
 93
        1
300
CONTENTFORMAT
  1
CONTENTFORMAT_BEGIN
 90
        0
 91
        0
 92
      512
 93
        0
300

 40
0.0
140
1.0
 94
        5
 62
     0
340
11
144
6.0
309
CONTENTFORMAT_END
171
     1
301
MARGIN
  1
CELLMARGIN_BEGIN
 40
1.5
 40
1.5
 40
1.5
 40
1.5
 40
4.5
 40
4.5
309
CELLMARGIN_END
 94
        6
 95
        1
302
GRIDFORMAT
  1
GRIDFORMAT_BEGIN
 90
        0
 91
        1
 62
     0
 92
       -2
340
0
 93
        0
 40
1.125
309
GRIDFORMAT_END
 95
        2
302
GRIDFORMAT
  1
GRIDFORMAT_BEGIN
 90
        0
 91
        1
 62
     0
 92
       -2
340
0
 93
        0
 40
1.125
309
GRIDFORMAT_END
 95
        4
302
GRIDFORMAT
  1
GRIDFORMAT_BEGIN
 90
        0
 91
        1
 62
     0
 92
       -2
340
0
 93
        0
 40
1.125
309
GRIDFORMAT_END
 95
        8
302
GRIDFORMAT
  1
GRIDFORMAT_BEGIN
 90
        0
 91
        1
 62
     0
 92
       -2
340
0
 93
        0
 40
1.125
309
GRIDFORMAT_END
 95
       16
302
GRIDFORMAT
  1
GRIDFORMAT_BEGIN
 90
        0
 91
        1
 62
     0
 92
       -2
340
0
 93
        0
 40
1.125
309
GRIDFORMAT_END
 95
       32
302
GRIDFORMAT
  1
GRIDFORMAT_BEGIN
 90
        0
 91
        1
 62
     0
 92
       -2
340
0
 93
        0
 40
1.125
309
GRIDFORMAT_END
309
TABLEFORMAT_END
  1
CELLSTYLE_BEGIN
 90
        1
 91
        1
300
_TITLE
309
CELLSTYLE_END
300
CELLSTYLE
  1
TABLEFORMAT_BEGIN
 90
        5
170
     1
 91
        0
 92
        0
 62
   257
 93
        1
300
CONTENTFORMAT
  1
CONTENTFORMAT_BEGIN
 90
        0
 91
        0
 92
      512
 93
        0
300

 40
0.0
140
1.0
 94
        5
 62
     0
340
11
144
4.5
309
CONTENTFORMAT_END
171
     1
301
MARGIN
  1
CELLMARGIN_BEGIN
 40
1.5
 40
1.5
 40
1.5
 40
1.5
 40
4.5
 40
4.5
309
CELLMARGIN_END
 94
        6
 95
        1
302
GRIDFORMAT
  1
GRIDFORMAT_BEGIN
 90
        0
 91
        1
 62
     0
 92
       -2
340
0
 93
        0
 40
1.125
309
GRIDFORMAT_END
 95
        2
302
GRIDFORMAT
  1
GRIDFORMAT_BEGIN
 90
        0
 91
        1
 62
     0
 92
       -2
340
0
 93
        0
 40
1.125
309
GRIDFORMAT_END
 95
        4
302
GRIDFORMAT
  1
GRIDFORMAT_BEGIN
 90
        0
 91
        1
 62
     0
 92
       -2
340
0
 93
        0
 40
1.125
309
GRIDFORMAT_END
 95
        8
302
GRIDFORMAT
  1
GRIDFORMAT_BEGIN
 90
        0
 91
        1
 62
     0
 92
       -2
340
0
 93
        0
 40
1.125
309
GRIDFORMAT_END
 95
       16
302
GRIDFORMAT
  1
GRIDFORMAT_BEGIN
 90
        0
 91
        1
 62
     0
 92
       -2
340
0
 93
        0
 40
1.125
309
GRIDFORMAT_END
 95
       32
302
GRIDFORMAT
  1
GRIDFORMAT_BEGIN
 90
        0
 91
        1
 62
     0
 92
       -2
340
0
 93
        0
 40
1.125
309
GRIDFORMAT_END
309
TABLEFORMAT_END
  1
CELLSTYLE_BEGIN
 90
        2
 91
        1
300
_HEADER
309
CELLSTYLE_END
300
CELLSTYLE
  1
TABLEFORMAT_BEGIN
 90
        5
170
     1
 91
        0
 92
        0
 62
   257
 93
        1
300
CONTENTFORMAT
  1
CONTENTFORMAT_BEGIN
 90
        0
 91
        0
 92
      512
 93
        0
300

 40
0.0
140
1.0
 94
        2
 62
     0
340
11
144
4.5
309
CONTENTFORMAT_END
171
     1
301
MARGIN
  1
CELLMARGIN_BEGIN
 40
1.5
 40
1.5
 40
1.5
 40
1.5
 40
4.5
 40
4.5
309
CELLMARGIN_END
 94
        6
 95
        1
302
GRIDFORMAT
  1
GRIDFORMAT_BEGIN
 90
        0
 91
        1
 62
     0
 92
       -2
340
0
 93
        0
 40
1.125
309
GRIDFORMAT_END
 95
        2
302
GRIDFORMAT
  1
GRIDFORMAT_BEGIN
 90
        0
 91
        1
 62
     0
 92
       -2
340
0
 93
        0
 40
1.125
309
GRIDFORMAT_END
 95
        4
302
GRIDFORMAT
  1
GRIDFORMAT_BEGIN
 90
        0
 91
        1
 62
     0
 92
       -2
340
0
 93
        0
 40
1.125
309
GRIDFORMAT_END
 95
        8
302
GRIDFORMAT
  1
GRIDFORMAT_BEGIN
 90
        0
 91
        1
 62
     0
 92
       -2
340
0
 93
        0
 40
1.125
309
GRIDFORMAT_END
 95
       16
302
GRIDFORMAT
  1
GRIDFORMAT_BEGIN
 90
        0
 91
        1
 62
     0
 92
       -2
340
0
 93
        0
 40
1.125
309
GRIDFORMAT_END
 95
       32
302
GRIDFORMAT
  1
GRIDFORMAT_BEGIN
 90
        0
 91
        1
 62
     0
 92
       -2
340
0
 93
        0
 40
1.125
309
GRIDFORMAT_END
309
TABLEFORMAT_END
  1
CELLSTYLE_BEGIN
 90
        3
 91
        2
300
_DATA
309
CELLSTYLE_END
  0
XRECORD
  5
3C7
102
{ACAD_REACTORS
330
3C1
102
}
330
3C1
100
AcDbXrecord
280
     1
102
ACAD_ROUNDTRIP_PRE2007_TABLESTYLE
 90
      512
 91
        0
  1

 92
      512
 93
        0
  2

 94
      512
 95
        0
  3

  0
ENDSEC
  0
EOF
