  0
SECTION
  2
HEADER
  9
$ACADVER
  1
AC1018
  9
$ACADMAINTVER
 70
   104
  9
$DWGCODEPAGE
  3
ANSI_1252
  9
$LASTSAVEDBY
  1
User
  9
$INSBASE
 10
0.0
 20
0.0
 30
0.0
  9
$EXTMIN
 10
-800.0016559354518
 20
-83.34871867105096
 30
0.0
  9
$EXTMAX
 10
99.64834406454819
 20
493.4315491368078
 30
0.0
  9
$LIMMIN
 10
0.0
 20
0.0
  9
$LIMMAX
 10
420.0
 20
297.0
  9
$ORTHOMODE
 70
     0
  9
$REGENMODE
 70
     1
  9
$FILLMODE
 70
     1
  9
$QTEXTMODE
 70
     0
  9
$MIRRTEXT
 70
     1
  9
$LTSCALE
 40
1.0
  9
$ATTMODE
 70
     1
  9
$TEXTSIZE
 40
2.5
  9
$TRACEWID
 40
1.0
  9
$TEXTSTYLE
  7
Standard
  9
$CLAYER
  8
0
  9
$CELTYPE
  6
ByLayer
  9
$CECOLOR
 62
   256
  9
$CELTSCALE
 40
1.0
  9
$DISPSILH
 70
     1
  9
$DIMSCALE
 40
1.0
  9
$DIMASZ
 40
2.5
  9
$DIMEXO
 40
0.625
  9
$DIMDLI
 40
3.75
  9
$DIMRND
 40
0.0
  9
$DIMDLE
 40
0.0
  9
$DIMEXE
 40
1.25
  9
$DIMTP
 40
0.0
  9
$DIMTM
 40
0.0
  9
$DIMTXT
 40
2.5
  9
$DIMCEN
 40
2.5
  9
$DIMTSZ
 40
0.0
  9
$DIMTOL
 70
     0
  9
$DIMLIM
 70
     0
  9
$DIMTIH
 70
     0
  9
$DIMTOH
 70
     0
  9
$DIMSE1
 70
     0
  9
$DIMSE2
 70
     0
  9
$DIMTAD
 70
     1
  9
$DIMZIN
 70
     8
  9
$DIMBLK
  1

  9
$DIMASO
 70
     1
  9
$DIMSHO
 70
     1
  9
$DIMPOST
  1

  9
$DIMAPOST
  1

  9
$DIMALT
 70
     0
  9
$DIMALTD
 70
     3
  9
$DIMALTF
 40
0.03937007874016
  9
$DIMLFAC
 40
1.0
  9
$DIMTOFL
 70
     1
  9
$DIMTVP
 40
0.0
  9
$DIMTIX
 70
     0
  9
$DIMSOXD
 70
     0
  9
$DIMSAH
 70
     0
  9
$DIMBLK1
  1

  9
$DIMBLK2
  1

  9
$DIMSTYLE
  2
ISO-25
  9
$DIMCLRD
 70
     0
  9
$DIMCLRE
 70
     0
  9
$DIMCLRT
 70
     0
  9
$DIMTFAC
 40
1.0
  9
$DIMGAP
 40
0.625
  9
$DIMJUST
 70
     0
  9
$DIMSD1
 70
     0
  9
$DIMSD2
 70
     0
  9
$DIMTOLJ
 70
     0
  9
$DIMTZIN
 70
     8
  9
$DIMALTZ
 70
     0
  9
$DIMALTTZ
 70
     0
  9
$DIMUPT
 70
     0
  9
$DIMDEC
 70
     2
  9
$DIMTDEC
 70
     2
  9
$DIMALTU
 70
     2
  9
$DIMALTTD
 70
     3
  9
$DIMTXSTY
  7
Standard
  9
$DIMAUNIT
 70
     0
  9
$DIMADEC
 70
     0
  9
$DIMALTRND
 40
0.0
  9
$DIMAZIN
 70
     0
  9
$DIMDSEP
 70
    44
  9
$DIMATFIT
 70
     3
  9
$DIMFRAC
 70
     0
  9
$DIMLDRBLK
  1

  9
$DIMLUNIT
 70
     2
  9
$DIMLWD
 70
    -2
  9
$DIMLWE
 70
    -2
  9
$DIMTMOVE
 70
     0
  9
$LUNITS
 70
     2
  9
$LUPREC
 70
     4
  9
$SKETCHINC
 40
1.0
  9
$FILLETRAD
 40
10.0
  9
$AUNITS
 70
     0
  9
$AUPREC
 70
     0
  9
$MENU
  1
.
  9
$ELEVATION
 40
0.0
  9
$PELEVATION
 40
0.0
  9
$THICKNESS
 40
0.0
  9
$LIMCHECK
 70
     0
  9
$CHAMFERA
 40
10.0
  9
$CHAMFERB
 40
10.0
  9
$CHAMFERC
 40
20.0
  9
$CHAMFERD
 40
0.0
  9
$SKPOLY
 70
     0
  9
$TDCREATE
 40
2453398.588191354
  9
$TDUCREATE
 40
2453398.254858021
  9
$TDUPDATE
 40
2454313.747743056
  9
$TDUUPDATE
 40
2454313.414409722
  9
$TDINDWG
 40
0.2163531019
  9
$TDUSRTIMER
 40
0.2163511227
  9
$USRTIMER
 70
     1
  9
$ANGBASE
 50
0.0
  9
$ANGDIR
 70
     0
  9
$PDMODE
 70
     0
  9
$PDSIZE
 40
0.0
  9
$PLINEWID
 40
0.0
  9
$SPLFRAME
 70
     0
  9
$SPLINETYPE
 70
     6
  9
$SPLINESEGS
 70
 20000
  9
$HANDSEED
  5
F6B
  9
$SURFTAB1
 70
     6
  9
$SURFTAB2
 70
     6
  9
$SURFTYPE
 70
     6
  9
$SURFU
 70
     6
  9
$SURFV
 70
     6
  9
$UCSBASE
  2

  9
$UCSNAME
  2

  9
$UCSORG
 10
0.0
 20
0.0
 30
0.0
  9
$UCSXDIR
 10
1.0
 20
0.0
 30
0.0
  9
$UCSYDIR
 10
0.0
 20
1.0
 30
0.0
  9
$UCSORTHOREF
  2

  9
$UCSORTHOVIEW
 70
     1
  9
$UCSORGTOP
 10
0.0
 20
0.0
 30
0.0
  9
$UCSORGBOTTOM
 10
0.0
 20
0.0
 30
0.0
  9
$UCSORGLEFT
 10
0.0
 20
0.0
 30
0.0
  9
$UCSORGRIGHT
 10
0.0
 20
0.0
 30
0.0
  9
$UCSORGFRONT
 10
0.0
 20
0.0
 30
0.0
  9
$UCSORGBACK
 10
0.0
 20
0.0
 30
0.0
  9
$PUCSBASE
  2

  9
$PUCSNAME
  2

  9
$PUCSORG
 10
0.0
 20
0.0
 30
0.0
  9
$PUCSXDIR
 10
1.0
 20
0.0
 30
0.0
  9
$PUCSYDIR
 10
0.0
 20
1.0
 30
0.0
  9
$PUCSORTHOREF
  2

  9
$PUCSORTHOVIEW
 70
     0
  9
$PUCSORGTOP
 10
0.0
 20
0.0
 30
0.0
  9
$PUCSORGBOTTOM
 10
0.0
 20
0.0
 30
0.0
  9
$PUCSORGLEFT
 10
0.0
 20
0.0
 30
0.0
  9
$PUCSORGRIGHT
 10
0.0
 20
0.0
 30
0.0
  9
$PUCSORGFRONT
 10
0.0
 20
0.0
 30
0.0
  9
$PUCSORGBACK
 10
0.0
 20
0.0
 30
0.0
  9
$USERI1
 70
     0
  9
$USERI2
 70
     0
  9
$USERI3
 70
     0
  9
$USERI4
 70
     0
  9
$USERI5
 70
     0
  9
$USERR1
 40
0.0
  9
$USERR2
 40
0.0
  9
$USERR3
 40
0.0
  9
$USERR4
 40
0.0
  9
$USERR5
 40
0.0
  9
$WORLDVIEW
 70
     1
  9
$SHADEDGE
 70
     3
  9
$SHADEDIF
 70
    70
  9
$TILEMODE
 70
     1
  9
$MAXACTVP
 70
    64
  9
$PINSBASE
 10
0.0
 20
0.0
 30
0.0
  9
$PLIMCHECK
 70
     0
  9
$PEXTMIN
 10
1.000000000000000E+20
 20
1.000000000000000E+20
 30
1.000000000000000E+20
  9
$PEXTMAX
 10
-1.000000000000000E+20
 20
-1.000000000000000E+20
 30
-1.000000000000000E+20
  9
$PLIMMIN
 10
0.0
 20
0.0
  9
$PLIMMAX
 10
420.0
 20
297.0
  9
$UNITMODE
 70
     0
  9
$VISRETAIN
 70
     1
  9
$PLINEGEN
 70
     0
  9
$PSLTSCALE
 70
     1
  9
$TREEDEPTH
 70
  3020
  9
$CMLSTYLE
  2
Standard
  9
$CMLJUST
 70
     0
  9
$CMLSCALE
 40
20.0
  9
$PROXYGRAPHICS
 70
     1
  9
$MEASUREMENT
 70
     1
  9
$CELWEIGHT
370
    -1
  9
$ENDCAPS
280
     0
  9
$JOINSTYLE
280
     0
  9
$LWDISPLAY
290
     0
  9
$INSUNITS
 70
     4
  9
$HYPERLINKBASE
  1

  9
$STYLESHEET
  1

  9
$XEDIT
290
     1
  9
$CEPSNTYPE
380
     0
  9
$PSTYLEMODE
290
     1
  9
$FINGERPRINTGUID
  2
{CD0A5D15-EBF0-408D-8C90-17FC68F0E3F7}
  9
$VERSIONGUID
  2
{6583F462-A243-42F8-B646-ECA0A1D9C4CA}
  9
$EXTNAMES
290
     1
  9
$PSVPSCALE
 40
0.0
  9
$OLESTARTUP
290
     0
  9
$SORTENTS
280
   127
  9
$INDEXCTL
280
     0
  9
$HIDETEXT
280
     1
  9
$XCLIPFRAME
290
     0
  9
$HALOGAP
280
     0
  9
$OBSCOLOR
 70
   257
  9
$OBSLTYPE
280
     0
  9
$INTERSECTIONDISPLAY
280
     0
  9
$INTERSECTIONCOLOR
 70
   257
  9
$DIMASSOC
280
     2
  9
$PROJECTNAME
  1

  0
ENDSEC
  0
SECTION
  2
CLASSES
  0
CLASS
  1
ACDBDICTIONARYWDFLT
  2
AcDbDictionaryWithDefault
  3
ObjectDBX Classes
 90
        0
 91
        1
280
     0
281
     0
  0
CLASS
  1
DIMASSOC
  2
AcDbDimAssoc
  3
"AcDbDimAssoc|Product Desc:     AcDim ARX App For Dimension|Company:          Autodesk, Inc.|WEB Address:      www.autodesk.com"
 90
        0
 91
        6
280
     0
281
     0
  0
CLASS
  1
DICTIONARYVAR
  2
AcDbDictionaryVar
  3
ObjectDBX Classes
 90
        0
 91
        5
280
     0
281
     0
  0
CLASS
  1
MATERIAL
  2
AcDbMaterial
  3
ObjectDBX Classes
 90
     1153
 91
        3
280
     0
281
     0
  0
CLASS
  1
VISUALSTYLE
  2
AcDbVisualStyle
  3
ObjectDBX Classes
 90
     4095
 91
       19
280
     0
281
     0
  0
CLASS
  1
TABLESTYLE
  2
AcDbTableStyle
  3
ObjectDBX Classes
 90
     4095
 91
        1
280
     0
281
     0
  0
CLASS
  1
SOLID_BACKGROUND
  2
AcDbSolidBackground
  3
SCENEOE
 90
     4095
 91
        1
280
     0
281
     0
  0
CLASS
  1
NPOCOLLECTION
  2
AcDbImpNonPersistentObjectsCollection
  3
ObjectDBX Classes
 90
     1153
 91
        1
280
     0
281
     0
  0
CLASS
  1
ACME_DOCUMENT
  2
AcMeDbDoc
  3
AcMeServices
 90
     1024
 91
        2
280
     0
281
     0
  0
CLASS
  1
AMGSETTINGSOBJ
  2
AmgSettingsObj
  3
"AcadM|Product Description: AutoCAD Mechanical|Company: Autodesk, Inc."
 90
     1024
 91
        2
280
     0
281
     0
  0
CLASS
  1
ACMESCOPE
  2
AcMeScope
  3
AcMeServices
 90
     1024
 91
        1
280
     0
281
     0
  0
CLASS
  1
ACMECOMMANDHISTORY
  2
AcMeCommandHistory
  3
AcMeServices
 90
     1024
 91
        1
280
     0
281
     0
  0
CLASS
  1
ACIMSYSVARMAN
  2
AcImSysVarManager
  3
AcMeServices
 90
     1024
 91
        5
280
     0
281
     0
  0
CLASS
  1
ACIMINTSYSVAR
  2
AcImIntSysVar
  3
AcMeServices
 90
     1024
 91
       27
280
     0
281
     0
  0
CLASS
  1
ACMEDRAWINGMAN
  2
AcMeDrawingMan
  3
AcMeServices
 90
     1024
 91
        1
280
     0
281
     0
  0
CLASS
  1
ACMEVIEW
  2
AcMeView
  3
AcMeServices
 90
     1024
 91
        1
280
     0
281
     0
  0
CLASS
  1
ACDBENTITYCACHE
  2
AcMeEntityCache
  3
AcMeServices
 90
     1024
 91
        1
280
     0
281
     0
  0
CLASS
  1
GSMANAGER
  2
AcMeGSManager
  3
AcMeServices
 90
     1024
 91
        1
280
     0
281
     0
  0
CLASS
  1
AMDTINTERNALREACTOR
  2
AmdtInternalReactor
  3
AcMeServices
 90
     1024
 91
        2
280
     0
281
     0
  0
CLASS
  1
ACMESTATEMGR
  2
AcMeStateMgr
  3
AcMeServices
 90
     1024
 91
        1
280
     0
281
     0
  0
CLASS
  1
ACGREFMASTER
  2
AcGrefMaster
  3
AcAttribServices
 90
     1024
 91
        1
280
     0
281
     0
  0
CLASS
  1
AM_DRAWING_MGR
  2
AcDmDwgMgr
  3
AcMechDwgViewMgmt
 90
     1024
 91
        1
280
     0
281
     0
  0
CLASS
  1
AM_DWG_DOCUMENT
  2
AcDmDwgDocument
  3
AcMechDwgViewMgmt
 90
     1024
 91
        1
280
     0
281
     0
  0
CLASS
  1
AM_DWG_SHEET
  2
AcDmSheet
  3
AcMechDwgViewMgmt
 90
     1024
 91
        2
280
     0
281
     0
  0
CLASS
  1
AM_VIEWDIMPARMAP
  2
AcDmViewDimParMap
  3
AcMechDwgViewMgmt
 90
     1024
 91
        2
280
     0
281
     0
  0
CLASS
  1
ACIMREALSYSVAR
  2
AcImRealSysVar
  3
AcMeServices
 90
     1024
 91
        1
280
     0
281
     0
  0
CLASS
  1
AM_DWGMGR_NAME
  2
AcDmDwgMgrName
  3
AcMechDwgViewMgmt
 90
     1024
 91
        1
280
     0
281
     0
  0
CLASS
  1
ACME_DATABASE
  2
AcMeDbDatabase
  3
AcMeServices
 90
     1024
 91
        1
280
     0
281
     0
  0
CLASS
  1
ACRFINSADJUSTERMGR
  2
AcRfInsAdjusterMgr
  3
AcMeServices
 90
     1024
 91
        1
280
     0
281
     0
  0
CLASS
  1
ACGREFACADMASTER
  2
AcGrefacadMaster
  3
AcGrefServices
 90
     1024
 91
        1
280
     0
281
     0
  0
CLASS
  1
AMDTMENUSTATEMGR
  2
AmdtMenuStateMgr
  3
McadcomServices
 90
     1024
 91
        1
280
     0
281
     0
  0
CLASS
  1
AMDTMCOMMENUSTATE
  2
AmdtMcomMenuState
  3
McadcomServices
 90
     1024
 91
        1
280
     0
281
     0
  0
CLASS
  1
AMIMASTER
  2
AmiMaster
  3
AmiServices
 90
     1024
 91
        1
280
     0
281
     0
  0
CLASS
  1
MAPIAMMOUDLE
  2
MApiAmModule
  3
MApiAmServices
 90
     1024
 91
        1
280
     0
281
     0
  0
CLASS
  1
ACIMSTRSYSVAR
  2
AcImStrSysVar
  3
AcMeServices
 90
     1024
 91
        5
280
     0
281
     0
  0
CLASS
  1
AMDTADMENUSTATE
  2
AmdtAdMenuState
  3
DesignerServices
 90
     1024
 91
        1
280
     0
281
     0
  0
CLASS
  1
ADAPPL
  2
AcAdAppl
  3
DesignerServices
 90
     1024
 91
        1
280
     0
281
     0
  0
CLASS
  1
DEPMGR
  2
AcAdDepMgr
  3
DesignerServices
 90
     1024
 91
        1
280
     0
281
     0
  0
CLASS
  1
PARAMMGR
  2
AcAdParamMgr
  3
DesignerServices
 90
     1024
 91
        1
280
     0
281
     0
  0
CLASS
  1
PARAMSCOPE
  2
AcAdParamScope
  3
DesignerServices
 90
     1024
 91
        1
280
     0
281
     0
  0
CLASS
  1
NAMEDAPPL
  2
AcAdNamedAppl
  3
DesignerServices
 90
     1024
 91
        1
280
     0
281
     0
  0
CLASS
  1
AMDTDMMENUSTATE
  2
AmdtDmMenuState
  3
AcMechDwgViewMgmt
 90
     1024
 91
        1
280
     0
281
     0
  0
CLASS
  1
AMDTAMMENUSTATE
  2
AmdtAmMenuState
  3
DesignerAssemblies
 90
     1024
 91
        1
280
     0
281
     0
  0
CLASS
  1
ACAMPROJECT
  2
AcAmProject
  3
DesignerAssemblies
 90
     1024
 91
        1
280
     0
281
     0
  0
CLASS
  1
ACAMGRCOMPDEF
  2
AcAmGrCompDef
  3
DesignerAssemblies
 90
     1024
 91
        1
280
     0
281
     0
  0
CLASS
  1
ACCMCONTEXT
  2
AcCmContext
  3
DesignerAssemblies
 90
     1024
 91
        1
280
     0
281
     0
  0
CLASS
  1
ACAMCOMPDEF
  2
AcAmCompDef
  3
DesignerAssemblies
 90
     1024
 91
        1
280
     0
281
     0
  0
CLASS
  1
ACAMCOMPDEFMGR
  2
AcAmCompDefMgr
  3
DesignerAssemblies
 90
     1024
 91
        1
280
     0
281
     0
  0
CLASS
  1
AMCONTEXTMGR
  2
AcAmContextMgr
  3
DesignerAssemblies
 90
     1024
 91
        1
280
     0
281
     0
  0
CLASS
  1
ACAMCONTEXTMODELER
  2
AcAmContextModeler
  3
DesignerAssemblies
 90
     1024
 91
        1
280
     0
281
     0
  0
CLASS
  1
ACMDATADICTIONARY
  2
AcmDataDictionary
  3
"AcmSymBB|Product Description: AutoCAD Mechanical|Company: Autodesk, Inc."
 90
     1024
 91
        1
280
     0
281
     0
  0
CLASS
  1
CATALOGSTATE
  2
AcAmCatalogState
  3
DesignerAssemblies
 90
     1024
 91
        1
280
     0
281
     0
  0
CLASS
  1
ACAMGRCOMPDEFSET
  2
AcAmGrCompDefSet
  3
DesignerAssemblies
 90
     1024
 91
        1
280
     0
281
     0
  0
CLASS
  1
AMDTBROWSERDBTAB
  2
AmdtBrowserDbTab
  3
McadcomServices
 90
     1024
 91
        1
280
     0
281
     0
  0
CLASS
  1
CBROWSERAPPOBJECT
  2
CBrowserAppObject
  3
McadcomServices
 90
     1024
 91
        3
280
     0
281
     0
  0
CLASS
  1
DM_PLACEHOLDER
  2
AcDmSelsetPlaceholder
  3
AcMechDwgViewMgmt
 90
     1024
 91
        1
280
     0
281
     0
  0
CLASS
  1
ACMSTANDARDISO
  2
AcmStandardISO
  3
"Amdt_StdImp|Product Description: AutoCAD Mechanical|Company: Autodesk, Inc."
 90
     1024
 91
        1
280
     0
281
     0
  0
CLASS
  1
AMGOBJPROPCFG
  2
AmgObjPropCfg
  3
"AmgLay|Product Description: AutoCAD Mechanical|Company: Autodesk, Inc."
 90
     1025
 91
        1
280
     0
281
     0
  0
CLASS
  1
AMDTEDGESTANDARDISO13715
  2
AmdtEdgeStdISO13715
  3
"Amdt_StdImp|Product Description: AutoCAD Mechanical|Company: Autodesk, Inc."
 90
     1024
 91
        1
280
     0
281
     0
  0
CLASS
  1
ACMSURFSTANDARDISO
  2
AcmSurfTextStdISO
  3
"Amdt_StdImp|Product Description: AutoCAD Mechanical|Company: Autodesk, Inc."
 90
     1024
 91
        1
280
     0
281
     0
  0
CLASS
  1
ACMFCFSTANDARDISO
  2
AcmFCFStdISO
  3
"Amdt_StdImp|Product Description: AutoCAD Mechanical|Company: Autodesk, Inc."
 90
     1024
 91
        1
280
     0
281
     0
  0
CLASS
  1
ACMWELDSTANDARDISO
  2
AcmWeldingStdISO
  3
"Amdt_StdImp|Product Description: AutoCAD Mechanical|Company: Autodesk, Inc."
 90
     1024
 91
        1
280
     0
281
     0
  0
CLASS
  1
ACMIDSTANDARDISO
  2
AcmIdStdISO
  3
"Amdt_StdImp|Product Description: AutoCAD Mechanical|Company: Autodesk, Inc."
 90
     1024
 91
        1
280
     0
281
     0
  0
CLASS
  1
ACMDATUMSTANDARDISO
  2
AcmDatumStdISO
  3
"Amdt_StdImp|Product Description: AutoCAD Mechanical|Company: Autodesk, Inc."
 90
     1024
 91
        1
280
     0
281
     0
  0
CLASS
  1
ACMBOMSTANDARDISO
  2
AcmBOMStdISO
  3
"Amdt_StdImp|Product Description: AutoCAD Mechanical|Company: Autodesk, Inc."
 90
     1024
 91
        1
280
     0
281
     0
  0
CLASS
  1
ACMDETAILSTANDARDISO
  2
AmdtDetailSymStdISO
  3
"Amdt_StdImp|Product Description: AutoCAD Mechanical|Company: Autodesk, Inc."
 90
     1024
 91
        1
280
     0
281
     0
  0
CLASS
  1
ACMSECTIONSTANDARDISO
  2
AmdtSectionSymStdISO
  3
"Amdt_StdImp|Product Description: AutoCAD Mechanical|Company: Autodesk, Inc."
 90
     1024
 91
        1
280
     0
281
     0
  0
CLASS
  1
ACMCENTERLINESTANDARDISO
  2
AmdtCenterLineStdISO
  3
"Amdt_StdImp|Product Description: AutoCAD Mechanical|Company: Autodesk, Inc."
 90
     1024
 91
        1
280
     0
281
     0
  0
CLASS
  1
ACMTHREADLINESTANDARDISO
  2
AmdtThreadLineStdISO
  3
"Amdt_StdImp|Product Description: AutoCAD Mechanical|Company: Autodesk, Inc."
 90
     1024
 91
        1
280
     0
281
     0
  0
CLASS
  1
ACMNOTESTANDARDISO
  2
AmdtNoteStdISO
  3
"Amdt_StdImp|Product Description: AutoCAD Mechanical|Company: Autodesk, Inc."
 90
     1024
 91
        1
280
     0
281
     0
  0
CLASS
  1
ACMTAPERSTANDARDISO
  2
AcmTaperStdISO
  3
"Amdt_StdImp|Product Description: AutoCAD Mechanical|Company: Autodesk, Inc."
 90
     1024
 91
        1
280
     0
281
     0
  0
CLASS
  1
AMDTNOTETEMPLATEDB
  2
AmdtNoteTemplateDB
  3
AcmSymBB|Product Description: AutoCAD Mechanical|Company: Autodesk, Inc.
 90
     1024
 91
        6
280
     0
281
     0
  0
CLASS
  1
ACAMGLAYSTD
  2
AcAmgLayStd
  3
"AmgLay|Product Description: AutoCAD Mechanical|Company: Autodesk, Inc."
 90
     1024
 91
        1
280
     0
281
     0
  0
CLASS
  1
ACAMGDIMSTD
  2
AcAmgDimStd
  3
"AmgDim|Product Description: AutoCAD Mechanical|Company: Autodesk, Inc."
 90
     1024
 91
        1
280
     0
281
     0
  0
CLASS
  1
ACAMGHOLECHARTSTDISO
  2
AcAmgHoleChartStdISO
  3
AmgDim|Product Description: AutoCAD Mechanical|Company: Autodesk, Inc.
 90
     1024
 91
        1
280
     0
281
     0
  0
CLASS
  1
ACAMGTITLESTD
  2
AcAmgTitleStd
  3
"AmgTitle|Product Description: AutoCAD Mechanical|Company: Autodesk, Inc."
 90
     4095
 91
        1
280
     0
281
     0
  0
CLASS
  1
ACAMGFILTERDAT
  2
AcAmgFilterDat
  3
"AcadM|Product Description: AutoCAD Mechanical|Company: Autodesk, Inc."
 90
     1024
 91
        6
280
     0
281
     0
  0
CLASS
  1
SORTENTSTABLE
  2
AcDbSortentsTable
  3
ObjectDBX Classes
 90
        0
 91
        1
280
     0
281
     0
  0
CLASS
  1
CAMSSTRUCTBTNSTATE
  2
StructBtnState
  3
DesignerAssemblies
 90
     1024
 91
        1
280
     0
281
     0
  0
CLASS
  1
SCALE
  2
AcDbScale
  3
ObjectDBX Classes
 90
     1153
 91
       33
280
     0
281
     0
  0
CLASS
  1
MLEADERSTYLE
  2
AcDbMLeaderStyle
  3
ACDB_MLEADERSTYLE_CLASS
 90
     4095
 91
        1
280
     0
281
     0
  0
CLASS
  1
ACMANOOTATIONVIEWSTANDARDISO
  2
AmdtAnViewStdISO
  3
"Amdt_StdImp|Product Description: AutoCAD Mechanical|Company: Autodesk, Inc."
 90
     1024
 91
        1
280
     0
281
     0
  0
CLASS
  1
CELLSTYLEMAP
  2
AcDbCellStyleMap
  3
ObjectDBX Classes
 90
     1152
 91
        1
280
     0
281
     0
  0
ENDSEC
  0
SECTION
  2
TABLES
  0
TABLE
  2
VPORT
  5
8
330
0
100
AcDbSymbolTable
 70
     1
  0
VPORT
  5
D39
330
8
100
AcDbSymbolTableRecord
100
AcDbViewportTableRecord
  2
*Active
 70
     0
 10
0.0
 20
0.0
 11
1.0
 21
1.0
 12
10.46749143452604
 22
0.0
 13
0.0
 23
0.0
 14
10.0
 24
10.0
 15
10.0
 25
10.0
 16
0.0
 26
0.0
 36
1412.231059203903
 17
-355.5664105874467
 27
209.1864152328784
 37
648.9347181395678
 40
633.6858276132284
 41
1.499364675984752
 42
50.0
 43
0.0
 44
0.0
 50
0.0
 51
0.0
 71
     0
 72
 20000
 73
     1
 74
     3
 75
     0
 76
     0
 77
     0
 78
     0
281
     1
 65
     1
110
0.0
120
0.0
130
0.0
111
1.0
121
0.0
131
0.0
112
0.0
122
1.0
132
0.0
 79
     0
146
0.0
  0
ENDTAB
  0
TABLE
  2
LTYPE
  5
5
330
0
100
AcDbSymbolTable
 70
    14
  0
LTYPE
  5
14
330
5
100
AcDbSymbolTableRecord
100
AcDbLinetypeTableRecord
  2
ByBlock
 70
     0
  3

 72
    65
 73
     0
 40
0.0
  0
LTYPE
  5
15
330
5
100
AcDbSymbolTableRecord
100
AcDbLinetypeTableRecord
  2
ByLayer
 70
     0
  3

 72
    65
 73
     0
 40
0.0
  0
LTYPE
  5
16
330
5
100
AcDbSymbolTableRecord
100
AcDbLinetypeTableRecord
  2
Continuous
 70
     0
  3
Solid line
 72
    65
 73
     0
 40
0.0
  0
LTYPE
  5
D8E
330
5
100
AcDbSymbolTableRecord
100
AcDbLinetypeTableRecord
  2
HIDDEN
 70
     0
  3
Hidden __ __ __ __ __ __ __ __ __ __ __ __ __ _
 72
    65
 73
     2
 40
9.524999999999998
 49
6.349999999999999
 74
     0
 49
-3.174999999999999
 74
     0
  0
LTYPE
  5
D8F
330
5
100
AcDbSymbolTableRecord
100
AcDbLinetypeTableRecord
  2
PHANTOM2
 70
     0
  3
Phantom (.5x) ___ _ _ ___ _ _ ___ _ _ ___ _ _
 72
    65
 73
     6
 40
31.75
 49
15.875
 74
     0
 49
-3.174999999999999
 74
     0
 49
3.174999999999999
 74
     0
 49
-3.174999999999999
 74
     0
 49
3.174999999999999
 74
     0
 49
-3.174999999999999
 74
     0
  0
LTYPE
  5
D90
330
5
100
AcDbSymbolTableRecord
100
AcDbLinetypeTableRecord
  2
CENTER
 70
     0
  3
Center ____ _ ____ _ ____ _ ____ _ ____ _ ____
 72
    65
 73
     4
 40
50.8
 49
31.75
 74
     0
 49
-6.349999999999999
 74
     0
 49
6.349999999999999
 74
     0
 49
-6.349999999999999
 74
     0
  0
LTYPE
  5
DC5
330
5
100
AcDbSymbolTableRecord
100
AcDbLinetypeTableRecord
  2
AM_ISO02W050
 70
     0
  3
__ __ __ __ __ __ __ __ __ __ __ __ __ __ __
 72
    65
 73
     2
 40
7.5
 49
6.0
 74
     0
 49
-1.5
 74
     0
  0
LTYPE
  5
DC6
330
5
100
AcDbSymbolTableRecord
100
AcDbLinetypeTableRecord
  2
AM_ISO08W050
 70
     0
  3
____ . ____ . ____ . ____ . ____ . ____ . ____
 72
    65
 73
     4
 40
18.0
 49
12.0
 74
     0
 49
-1.5
 74
     0
 49
3.0
 74
     0
 49
-1.5
 74
     0
  0
LTYPE
  5
DC7
330
5
100
AcDbSymbolTableRecord
100
AcDbLinetypeTableRecord
  2
AM_ISO09W050
 70
     0
  3
_____ . . _____ . . _____ . . ____ .. ____
 72
    65
 73
     6
 40
22.5
 49
12.0
 74
     0
 49
-1.5
 74
     0
 49
3.0
 74
     0
 49
-1.5
 74
     0
 49
3.0
 74
     0
 49
-1.5
 74
     0
  0
LTYPE
  5
DC8
330
5
100
AcDbSymbolTableRecord
100
AcDbLinetypeTableRecord
  2
Amconstr
 70
     0
  3
_______________________
 72
    65
 73
     2
 40
9999.0
 49
9999.0
 74
     0
 49
0.0
 74
     0
  0
LTYPE
  5
DC9
330
5
100
AcDbSymbolTableRecord
100
AcDbLinetypeTableRecord
  2
AM_ISO08W050x2
 70
     0
  3
__ . __ . __ . __ . __ . __
 72
    65
 73
     4
 40
9.0
 49
6.0
 74
     0
 49
-0.75
 74
     0
 49
1.5
 74
     0
 49
-0.75
 74
     0
  0
LTYPE
  5
DCA
330
5
100
AcDbSymbolTableRecord
100
AcDbLinetypeTableRecord
  2
AM_ISO02W050x2
 70
     0
  3
 _ _ _ _ _ _ _ _ _ _ _ _
 72
    65
 73
     2
 40
3.75
 49
3.0
 74
     0
 49
-0.75
 74
     0
  0
LTYPE
  5
DCD
330
5
100
AcDbSymbolTableRecord
100
AcDbLinetypeTableRecord
  2
Amzigzag
 70
     0
  3
/\/-/\/-/\/-/\/-/\/-/\/
 72
    65
 73
     2
 40
11.0001
 49
0.0001
 74
     4
 75
   136
340
DCC
 46
0.04
 50
0.0
 44
0.0
 45
0.0
 49
-11.0
 74
     0
  0
LTYPE
  5
DDD
330
5
100
AcDbSymbolTableRecord
100
AcDbLinetypeTableRecord
  2
ACISOWELD
 70
     0
  3
_ _ _ _ _
 72
    65
 73
     2
 40
2.0
 49
2.0
 74
     0
 49
-1.0
 74
     0
  0
LTYPE
  5
DDE
330
5
100
AcDbSymbolTableRecord
100
AcDbLinetypeTableRecord
  2
ACISOTGB
 70
     0
  3
__ . . __ . .
 72
    65
 73
     6
 40
9.0
 49
4.0
 74
     0
 49
-1.0
 74
     0
 49
1.0
 74
     0
 49
-1.0
 74
     0
 49
1.0
 74
     0
 49
-1.0
 74
     0
  0
LTYPE
  5
DDF
330
5
100
AcDbSymbolTableRecord
100
AcDbLinetypeTableRecord
  2
ACISOTGL
 70
     0
  3
_ _ _ _ _
 72
    65
 73
     2
 40
3.0
 49
2.0
 74
     0
 49
-1.0
 74
     0
  0
ENDTAB
  0
TABLE
  2
LAYER
  5
2
330
0
100
AcDbSymbolTable
 70
     2
  0
LAYER
  5
10
102
{ACAD_XDICTIONARY
360
F5B
102
}
330
2
100
AcDbSymbolTableRecord
100
AcDbLayerTableRecord
  2
0
 70
     0
 62
     7
  6
Continuous
370
    -3
390
F
  0
LAYER
  5
32
330
2
100
AcDbSymbolTableRecord
100
AcDbLayerTableRecord
  2
Defpoints
 70
     0
 62
     7
  6
Continuous
290
     0
370
    -3
390
F
  0
ENDTAB
  0
TABLE
  2
STYLE
  5
3
330
0
100
AcDbSymbolTable
 70
     4
  0
STYLE
  5
11
330
3
100
AcDbSymbolTableRecord
100
AcDbTextStyleTableRecord
  2
Standard
 70
     0
 40
0.0
 41
1.0
 50
0.0
 71
     0
 42
2.5
  3
txt
  4

  0
STYLE
  5
DCC
330
3
100
AcDbSymbolTableRecord
100
AcDbTextStyleTableRecord
  2

 70
     1
 40
0.0
 41
1.0
 50
0.0
 71
     0
 42
2.5
  3
genltshp.shx
  4

  0
STYLE
  5
DCE
330
3
100
AcDbSymbolTableRecord
100
AcDbTextStyleTableRecord
  2
ACISOTS
 70
     0
 40
1.0
 41
1.0
 50
0.0
 71
     0
 42
2.5
  3
isocp.shx
  4

  0
STYLE
  5
DDC
330
3
100
AcDbSymbolTableRecord
100
AcDbTextStyleTableRecord
  2
ACISOGDT
 70
     0
 40
0.0
 41
1.0
 50
0.0
 71
     0
 42
2.5
  3
amgdt.shx
  4

  0
ENDTAB
  0
TABLE
  2
VIEW
  5
6
330
0
100
AcDbSymbolTable
 70
     0
  0
ENDTAB
  0
TABLE
  2
UCS
  5
7
330
0
100
AcDbSymbolTable
 70
     0
  0
ENDTAB
  0
TABLE
  2
APPID
  5
9
330
0
100
AcDbSymbolTable
 70
    11
  0
APPID
  5
12
330
9
100
AcDbSymbolTableRecord
100
AcDbRegAppTableRecord
  2
ACAD
 70
     0
  0
APPID
  5
D5F
330
9
100
AcDbSymbolTableRecord
100
AcDbRegAppTableRecord
  2
MCAD_NO_VIS
 70
     0
  0
APPID
  5
D60
330
9
100
AcDbSymbolTableRecord
100
AcDbRegAppTableRecord
  2
ACAD_TEMP_GRAPHIC
 70
     0
  0
APPID
  5
D92
330
9
100
AcDbSymbolTableRecord
100
AcDbRegAppTableRecord
  2
AD_DRAW
 70
     0
  0
APPID
  5
D95
330
9
100
AcDbSymbolTableRecord
100
AcDbRegAppTableRecord
  2
ACATTRIBSERVICES
 70
     0
  0
APPID
  5
DB6
330
9
100
AcDbSymbolTableRecord
100
AcDbRegAppTableRecord
  2
DESIGNERASSEMBLIES
 70
     0
  0
APPID
  5
DBC
330
9
100
AcDbSymbolTableRecord
100
AcDbRegAppTableRecord
  2
ACADM_DIM_EDIT
 70
     0
  0
APPID
  5
DBD
330
9
100
AcDbSymbolTableRecord
100
AcDbRegAppTableRecord
  2
AMDT_DM_ADJ
 70
     0
  0
APPID
  5
EAE
330
9
100
AcDbSymbolTableRecord
100
AcDbRegAppTableRecord
  2
ACAD_EXEMPT_FROM_CAD_STANDARDS
 70
     0
  0
APPID
  5
F3D
330
9
100
AcDbSymbolTableRecord
100
AcDbRegAppTableRecord
  2
ACAD_MLEADERVER
 70
     0
  0
APPID
  5
F6A
330
9
100
AcDbSymbolTableRecord
100
AcDbRegAppTableRecord
  2
ACAD_DSTYLE_DIMARC_LENGTH_SYMBOL
 70
     0
  0
ENDTAB
  0
TABLE
  2
DIMSTYLE
  5
A
330
0
100
AcDbSymbolTable
 70
     9
100
AcDbDimStyleTable
 71
     1
340
27
  0
DIMSTYLE
105
27
102
{ACAD_REACTORS
330
B5F
330
B77
330
BA1
330
BDF
330
E5C
330
E5F
102
}
330
A
100
AcDbSymbolTableRecord
100
AcDbDimStyleTableRecord
  2
ISO-25
 70
     0
 41
2.5
 42
0.625
 43
3.75
 44
1.25
 73
     0
 74
     0
 77
     1
 78
     8
140
2.5
141
2.5
143
0.03937007874016
147
0.625
171
     3
172
     1
271
     2
272
     2
274
     3
278
    44
283
     0
284
     8
340
11
  0
DIMSTYLE
105
6A2
330
A
100
AcDbSymbolTableRecord
100
AcDbDimStyleTableRecord
  2
ISO-25_WS
 70
     0
 41
2.5
 42
0.625
 43
3.75
 44
1.25
 73
     0
 74
     0
 77
     1
 78
     8
140
2.5
141
2.5
143
0.0394
147
0.625
171
     4
172
     1
273
     8
274
     4
340
11
  0
DIMSTYLE
105
DEA
330
A
100
AcDbSymbolTableRecord
100
AcDbDimStyleTableRecord
  2
AM_ISO
 70
     0
  4
"
 41
2.5
 42
1.0
 43
10.0
 44
1.0
 47
0.1
 48
0.1
 73
     0
 74
     0
 77
     1
 78
     8
 79
     2
140
3.5
141
0.0
143
0.0393701
146
0.71
147
1.5
172
     1
176
   256
177
   256
178
     2
271
     2
272
     3
274
     4
283
     0
284
     8
340
11
371
    -1
372
    -1
1001
ACAD_DSTYLE_DIMARC_LENGTH_SYMBOL
1070
   379
1070
     1
  0
DIMSTYLE
105
DEB
330
A
100
AcDbSymbolTableRecord
100
AcDbDimStyleTableRecord
  2
AM_ISO$3
 70
     0
  4
"
 41
2.5
 42
1.0
 43
10.0
 44
1.0
 47
0.1
 48
0.1
 73
     0
 77
     1
 78
     8
 79
     2
140
3.5
141
0.0
143
0.0393701
146
0.71
147
1.5
176
   256
177
   256
178
     2
271
     2
272
     3
274
     4
283
     0
284
     8
288
     1
289
     0
340
11
371
    -1
372
    -1
1001
ACAD_DSTYLE_DIMARC_LENGTH_SYMBOL
1070
   379
1070
     1
  0
DIMSTYLE
105
DEC
330
A
100
AcDbSymbolTableRecord
100
AcDbDimStyleTableRecord
  2
AM_ISO$4
 70
     0
  4
"
 41
2.5
 42
1.0
 43
10.0
 44
1.0
 47
0.1
 48
0.1
 73
     0
 77
     1
 78
     8
 79
     2
140
3.5
141
0.0
143
0.0393701
146
0.71
147
1.5
176
   256
177
   256
178
     2
271
     2
272
     3
274
     4
283
     0
284
     8
288
     1
289
     0
340
11
371
    -1
372
    -1
1001
ACAD_DSTYLE_DIMARC_LENGTH_SYMBOL
1070
   379
1070
     1
  0
DIMSTYLE
105
DED
330
A
100
AcDbSymbolTableRecord
100
AcDbDimStyleTableRecord
  2
AM_ISO$6
 70
     0
  4
"
 41
2.5
 42
1.0
 43
10.0
 44
1.0
 47
0.1
 48
0.1
 73
     0
 74
     0
 78
     8
 79
     2
140
3.5
141
0.0
143
0.0393701
146
0.71
147
1.5
172
     1
176
   256
177
   256
178
     2
271
     2
272
     3
274
     4
283
     0
284
     8
340
11
371
    -1
372
    -1
1001
ACAD_DSTYLE_DIMARC_LENGTH_SYMBOL
1070
   379
1070
     1
  0
DIMSTYLE
105
DEE
330
A
100
AcDbSymbolTableRecord
100
AcDbDimStyleTableRecord
  2
AM_ISO$7
 70
     0
  4
"
 41
2.5
 42
1.0
 43
10.0
 44
1.0
 47
0.1
 48
0.1
 73
     0
 74
     0
 77
     1
 78
     8
 79
     2
140
5.0
141
0.0
143
0.0393701
146
0.71
147
1.5
172
     1
176
   256
177
   256
178
     2
271
     2
272
     3
274
     4
283
     0
284
     8
340
11
371
    -1
372
    -1
1001
ACAD_DSTYLE_DIMARC_LENGTH_SYMBOL
1070
   379
1070
     1
  0
DIMSTYLE
105
DEF
330
A
100
AcDbSymbolTableRecord
100
AcDbDimStyleTableRecord
  2
AM_ISO$SF
 70
     0
  4
"
 41
2.5
 42
1.0
 43
10.0
 44
1.0
 47
0.1
 48
0.1
 73
     0
 74
     0
 75
     1
 76
     1
 77
     1
 78
     8
 79
     2
140
3.5
141
0.0
143
0.0393701
146
0.71
147
1.5
172
     1
176
   256
177
   256
178
     2
271
     2
272
     3
274
     4
283
     0
284
     8
340
11
371
    -1
372
    -1
1001
ACAD_DSTYLE_DIMARC_LENGTH_SYMBOL
1070
   379
1070
     1
  0
DIMSTYLE
105
DF4
330
A
100
AcDbSymbolTableRecord
100
AcDbDimStyleTableRecord
  2
AM_ISO$SH
 70
     0
  4
"
 41
2.5
 42
1.0
 43
10.0
 44
1.0
 47
0.1
 48
0.1
 73
     0
 74
     0
 75
     1
 76
     1
 77
     1
 78
     8
 79
     2
140
3.5
141
0.0
143
0.0393701
144
2.0
146
0.71
147
1.5
172
     1
173
     1
176
   256
177
   256
178
     2
271
     2
272
     3
274
     4
283
     0
284
     8
340
11
343
DF0
371
    -1
372
    -1
1001
ACAD_DSTYLE_DIMARC_LENGTH_SYMBOL
1070
   379
1070
     1
  0
ENDTAB
  0
TABLE
  2
BLOCK_RECORD
  5
1
330
0
100
AcDbSymbolTable
 70
    14
  0
BLOCK_RECORD
  5
1F
102
{ACAD_XDICTIONARY
360
F01
102
}
330
1
100
AcDbSymbolTableRecord
100
AcDbBlockTableRecord
  2
*Model_Space
340
22
  0
BLOCK_RECORD
  5
1B
330
1
100
AcDbSymbolTableRecord
100
AcDbBlockTableRecord
  2
*Paper_Space
340
1E
  0
BLOCK_RECORD
  5
23
330
1
100
AcDbSymbolTableRecord
100
AcDbBlockTableRecord
  2
*Paper_Space0
340
26
  0
BLOCK_RECORD
  5
B60
330
1
100
AcDbSymbolTableRecord
100
AcDbBlockTableRecord
  2
*D1
340
0
  0
BLOCK_RECORD
  5
B78
330
1
100
AcDbSymbolTableRecord
100
AcDbBlockTableRecord
  2
*D2
340
0
  0
BLOCK_RECORD
  5
BA2
330
1
100
AcDbSymbolTableRecord
100
AcDbBlockTableRecord
  2
*D3
340
0
  0
BLOCK_RECORD
  5
BE0
330
1
100
AcDbSymbolTableRecord
100
AcDbBlockTableRecord
  2
*D4
340
0
  0
BLOCK_RECORD
  5
DF0
330
1
100
AcDbSymbolTableRecord
100
AcDbBlockTableRecord
  2
GENAXEH
340
0
  0
BLOCK_RECORD
  5
E62
330
1
100
AcDbSymbolTableRecord
100
AcDbBlockTableRecord
  2
*D9
340
0
  0
BLOCK_RECORD
  5
E6E
330
1
100
AcDbSymbolTableRecord
100
AcDbBlockTableRecord
  2
*D10
340
0
  0
ENDTAB
  0
ENDSEC
  0
SECTION
  2
BLOCKS
  0
BLOCK
  5
20
330
1F
100
AcDbEntity
  8
0
100
AcDbBlockBegin
  2
*Model_Space
 70
     0
 10
0.0
 20
0.0
 30
0.0
  3
*Model_Space
  1

  0
ENDBLK
  5
21
330
1F
100
AcDbEntity
  8
0
100
AcDbBlockEnd
  0
BLOCK
  5
1C
330
1B
100
AcDbEntity
 67
     1
  8
0
100
AcDbBlockBegin
  2
*Paper_Space
 70
     0
 10
0.0
 20
0.0
 30
0.0
  3
*Paper_Space
  1

  0
ENDBLK
  5
1D
330
1B
100
AcDbEntity
 67
     1
  8
0
100
AcDbBlockEnd
  0
BLOCK
  5
24
330
23
100
AcDbEntity
 67
     1
  8
0
100
AcDbBlockBegin
  2
*Paper_Space0
 70
     0
 10
0.0
 20
0.0
 30
0.0
  3
*Paper_Space0
  1

  0
ENDBLK
  5
25
330
23
100
AcDbEntity
 67
     1
  8
0
100
AcDbBlockEnd
  0
BLOCK
  5
B6A
330
B60
100
AcDbEntity
  8
0
100
AcDbBlockBegin
  2
*D1
 70
     1
 10
0.0
 20
0.0
 30
0.0
  3
*D1
  1

  0
LINE
  5
D0E
330
B60
100
AcDbEntity
  8
0
 62
     0
370
    -2
100
AcDbLine
 10
-696.4999999999999
 20
175.625
 30
0.0
 11
-696.4999999999999
 21
210.8624016596988
 31
0.0
  0
LINE
  5
D0F
330
B60
100
AcDbEntity
  8
0
 62
     0
370
    -2
100
AcDbLine
 10
-11.49999999999999
 20
175.6249999999999
 30
0.0
 11
-11.49999999999999
 21
210.8624016596988
 31
0.0
  0
LINE
  5
D10
330
B60
100
AcDbEntity
  8
0
 62
     0
370
    -2
100
AcDbLine
 10
-694.0
 20
209.6124016596987
 30
0.0
 11
-13.99999999999999
 21
209.6124016596987
 31
0.0
  0
SOLID
  5
D11
330
B60
100
AcDbEntity
  8
0
 62
     0
100
AcDbTrace
 10
-694.0
 20
210.0290683263654
 30
0.0
 11
-694.0
 21
209.1957349930321
 31
0.0
 12
-696.4999999999999
 22
209.6124016596987
 32
0.0
 13
-696.4999999999999
 23
209.6124016596987
 33
0.0
  0
SOLID
  5
D12
330
B60
100
AcDbEntity
  8
0
 62
     0
100
AcDbTrace
 10
-13.99999999999999
 20
210.0290683263654
 30
0.0
 11
-13.99999999999999
 21
209.1957349930321
 31
0.0
 12
-11.49999999999999
 22
209.6124016596987
 32
0.0
 13
-11.49999999999999
 23
209.6124016596987
 33
0.0
  0
MTEXT
  5
D13
330
B60
100
AcDbEntity
  8
0
 62
     0
100
AcDbMText
 10
-354.0
 20
225.2374016596987
 30
0.0
 40
30.0
 41
0.0
 71
     5
 72
     1
  1
685
 73
     1
 44
1.0
  0
POINT
  5
D14
330
B60
100
AcDbEntity
  8
Defpoints
 62
     0
100
AcDbPoint
 10
-696.4999999999999
 20
175.0
 30
0.0
  0
POINT
  5
D15
330
B60
100
AcDbEntity
  8
Defpoints
 62
     0
100
AcDbPoint
 10
-11.49999999999999
 20
175.0
 30
0.0
  0
POINT
  5
D16
330
B60
100
AcDbEntity
  8
Defpoints
 62
     0
100
AcDbPoint
 10
-11.49999999999999
 20
209.6124016596987
 30
0.0
  0
ENDBLK
  5
B6B
330
B60
100
AcDbEntity
  8
0
100
AcDbBlockEnd
  0
BLOCK
  5
B82
330
B78
100
AcDbEntity
  8
0
100
AcDbBlockBegin
  2
*D2
 70
     1
 10
0.0
 20
0.0
 30
0.0
  3
*D2
  1

  0
LINE
  5
D20
330
B78
100
AcDbEntity
  8
0
 62
     0
370
    -2
100
AcDbLine
 10
-644.0
 20
-4.624999999999957
 30
0.0
 11
-644.0
 21
-83.34871867105096
 31
0.0
  0
LINE
  5
D21
330
B78
100
AcDbEntity
  8
0
 62
     0
370
    -2
100
AcDbLine
 10
-64.0
 20
-4.625000000000024
 30
0.0
 11
-64.0
 21
-83.34871867105096
 31
0.0
  0
LINE
  5
D22
330
B78
100
AcDbEntity
  8
0
 62
     0
370
    -2
100
AcDbLine
 10
-641.5
 20
-82.09871867105096
 30
0.0
 11
-66.5
 21
-82.09871867105096
 31
0.0
  0
SOLID
  5
D23
330
B78
100
AcDbEntity
  8
0
 62
     0
100
AcDbTrace
 10
-641.5
 20
-81.68205200438428
 30
0.0
 11
-641.5
 21
-82.51538533771762
 31
0.0
 12
-644.0
 22
-82.09871867105096
 32
0.0
 13
-644.0
 23
-82.09871867105096
 33
0.0
  0
SOLID
  5
D24
330
B78
100
AcDbEntity
  8
0
 62
     0
100
AcDbTrace
 10
-66.5
 20
-81.68205200438428
 30
0.0
 11
-66.5
 21
-82.51538533771762
 31
0.0
 12
-64.0
 22
-82.09871867105096
 32
0.0
 13
-64.0
 23
-82.09871867105096
 33
0.0
  0
MTEXT
  5
D25
330
B78
100
AcDbEntity
  8
0
 62
     0
100
AcDbMText
 10
-354.0
 20
-66.47371867105096
 30
0.0
 40
30.0
 41
0.0
 71
     5
 72
     1
  1
580
 73
     1
 44
1.0
  0
POINT
  5
D26
330
B78
100
AcDbEntity
  8
Defpoints
 62
     0
100
AcDbPoint
 10
-644.0
 20
-3.999999999999957
 30
0.0
  0
POINT
  5
D27
330
B78
100
AcDbEntity
  8
Defpoints
 62
     0
100
AcDbPoint
 10
-64.0
 20
-4.000000000000024
 30
0.0
  0
POINT
  5
D28
330
B78
100
AcDbEntity
  8
Defpoints
 62
     0
100
AcDbPoint
 10
-64.0
 20
-82.09871867105096
 30
0.0
  0
ENDBLK
  5
B83
330
B78
100
AcDbEntity
  8
0
100
AcDbBlockEnd
  0
BLOCK
  5
BAC
330
BA2
100
AcDbEntity
  8
0
100
AcDbBlockBegin
  2
*D3
 70
     1
 10
0.0
 20
0.0
 30
0.0
  3
*D3
  1

  0
LINE
  5
D17
330
BA2
100
AcDbEntity
  8
0
 62
     0
370
    -2
100
AcDbLine
 10
-644.0
 20
119.375
 30
0.0
 11
-644.0
 21
94.73897052054793
 31
0.0
  0
LINE
  5
D18
330
BA2
100
AcDbEntity
  8
0
 62
     0
370
    -2
100
AcDbLine
 10
-63.99999999999998
 20
119.3749999999998
 30
0.0
 11
-63.99999999999998
 21
94.73897052054793
 31
0.0
  0
LINE
  5
D19
330
BA2
100
AcDbEntity
  8
0
 62
     0
370
    -2
100
AcDbLine
 10
-641.5
 20
95.98897052054793
 30
0.0
 11
-66.49999999999998
 21
95.98897052054793
 31
0.0
  0
SOLID
  5
D1A
330
BA2
100
AcDbEntity
  8
0
 62
     0
100
AcDbTrace
 10
-641.5
 20
96.40563718721459
 30
0.0
 11
-641.5
 21
95.57230385388125
 31
0.0
 12
-644.0
 22
95.98897052054793
 32
0.0
 13
-644.0
 23
95.98897052054793
 33
0.0
  0
SOLID
  5
D1B
330
BA2
100
AcDbEntity
  8
0
 62
     0
100
AcDbTrace
 10
-66.49999999999998
 20
96.40563718721459
 30
0.0
 11
-66.49999999999998
 21
95.57230385388125
 31
0.0
 12
-63.99999999999998
 22
95.98897052054793
 32
0.0
 13
-63.99999999999998
 23
95.98897052054793
 33
0.0
  0
MTEXT
  5
D1C
330
BA2
100
AcDbEntity
  8
0
 62
     0
100
AcDbMText
 10
-354.0
 20
111.6139705205479
 30
0.0
 40
30.0
 41
0.0
 71
     5
 72
     1
  1
580
 73
     1
 44
1.0
  0
POINT
  5
D1D
330
BA2
100
AcDbEntity
  8
Defpoints
 62
     0
100
AcDbPoint
 10
-644.0
 20
120.0
 30
0.0
  0
POINT
  5
D1E
330
BA2
100
AcDbEntity
  8
Defpoints
 62
     0
100
AcDbPoint
 10
-63.99999999999998
 20
119.9999999999998
 30
0.0
  0
POINT
  5
D1F
330
BA2
100
AcDbEntity
  8
Defpoints
 62
     0
100
AcDbPoint
 10
-63.99999999999998
 20
95.98897052054793
 30
0.0
  0
ENDBLK
  5
BAD
330
BA2
100
AcDbEntity
  8
0
100
AcDbBlockEnd
  0
BLOCK
  5
BEA
330
BE0
100
AcDbEntity
  8
0
100
AcDbBlockBegin
  2
*D4
 70
     1
 10
0.0
 20
0.0
 30
0.0
  3
*D4
  1

  0
LINE
  5
D2B
330
BE0
100
AcDbEntity
  8
0
 62
     0
370
    -2
100
AcDbLine
 10
-697.125
 20
25.00000000000004
 30
0.0
 11
-716.4409288707633
 21
25.00000000000005
 31
0.0
  0
LINE
  5
D2C
330
BE0
100
AcDbEntity
  8
0
 62
     0
370
    -2
100
AcDbLine
 10
-697.125
 20
0.0000000000000435
 30
0.0
 11
-716.4409288707633
 21
0.000000000000049
 31
0.0
  0
LINE
  5
D2D
330
BE0
100
AcDbEntity
  8
0
 62
     0
370
    -2
100
AcDbLine
 10
-715.1909288707634
 20
22.50000000000005
 30
0.0
 11
-715.1909288707634
 21
2.500000000000048
 31
0.0
  0
SOLID
  5
D2E
330
BE0
100
AcDbEntity
  8
0
 62
     0
100
AcDbTrace
 10
-715.60759553743
 20
22.50000000000005
 30
0.0
 11
-714.7742622040968
 21
22.50000000000005
 31
0.0
 12
-715.1909288707634
 22
25.00000000000005
 32
0.0
 13
-715.1909288707634
 23
25.00000000000005
 33
0.0
  0
SOLID
  5
D2F
330
BE0
100
AcDbEntity
  8
0
 62
     0
100
AcDbTrace
 10
-715.60759553743
 20
2.500000000000048
 30
0.0
 11
-714.7742622040968
 21
2.500000000000048
 31
0.0
 12
-715.1909288707634
 22
0.0000000000000486
 32
0.0
 13
-715.1909288707634
 23
0.0000000000000486
 33
0.0
  0
MTEXT
  5
D30
330
BE0
100
AcDbEntity
  8
0
 62
     0
100
AcDbMText
 10
-730.8159288707634
 20
12.49999999999993
 30
0.0
 40
30.0
 41
0.0
 71
     5
 72
     1
  1
%%c25
 11
0.0000000000000001
 21
1.0
 31
0.0
 73
     1
 44
1.0
  0
POINT
  5
D31
330
BE0
100
AcDbEntity
  8
Defpoints
 62
     0
100
AcDbPoint
 10
-696.4999999999999
 20
25.00000000000004
 30
0.0
  0
POINT
  5
D32
330
BE0
100
AcDbEntity
  8
Defpoints
 62
     0
100
AcDbPoint
 10
-696.4999999999999
 20
0.0000000000000434
 30
0.0
  0
POINT
  5
D33
330
BE0
100
AcDbEntity
  8
Defpoints
 62
     0
100
AcDbPoint
 10
-715.1909288707634
 20
0.0000000000000486
 30
0.0
  0
ENDBLK
  5
BEB
330
BE0
100
AcDbEntity
  8
0
100
AcDbBlockEnd
  0
BLOCK
  5
DF2
330
DF0
100
AcDbEntity
  8
0
100
AcDbBlockBegin
  2
GENAXEH
 70
     0
 10
0.0
 20
0.0
 30
0.0
  3
GENAXEH
  1

  0
LINE
  5
DF1
330
DF0
100
AcDbEntity
  8
0
100
AcDbLine
 10
-1.0
 20
0.0
 30
0.0
 11
1.0
 21
0.0
 31
0.0
  0
ENDBLK
  5
DF3
330
DF0
100
AcDbEntity
  8
0
100
AcDbBlockEnd
  0
BLOCK
  5
E6C
330
E62
100
AcDbEntity
  8
0
100
AcDbBlockBegin
  2
*D9
 70
     1
 10
0.0
 20
0.0
 30
0.0
  3
*D9
  1

  0
LINE
  5
ED1
330
E62
100
AcDbEntity
  8
0
 62
     0
370
    -2
100
AcDbLine
 10
-800.0016559354518
 20
375.624277028894
 30
0.0
 11
-800.0016559354518
 21
464.0565491368078
 31
0.0
  0
LINE
  5
ED2
330
E62
100
AcDbEntity
  8
0
 62
     0
370
    -2
100
AcDbLine
 10
99.64834406454819
 20
375.6242770288939
 30
0.0
 11
99.64834406454819
 21
464.0565491368078
 31
0.0
  0
LINE
  5
ED3
330
E62
100
AcDbEntity
  8
0
 62
     0
370
    -2
100
AcDbLine
 10
-797.5016559354518
 20
462.8065491368078
 30
0.0
 11
97.14834406454819
 21
462.8065491368078
 31
0.0
  0
SOLID
  5
ED4
330
E62
100
AcDbEntity
  8
0
 62
     0
100
AcDbTrace
 10
-797.5016559354518
 20
463.2232158034745
 30
0.0
 11
-797.5016559354518
 21
462.3898824701411
 31
0.0
 12
-800.0016559354518
 22
462.8065491368078
 32
0.0
 13
-800.0016559354518
 23
462.8065491368078
 33
0.0
  0
SOLID
  5
ED5
330
E62
100
AcDbEntity
  8
0
 62
     0
100
AcDbTrace
 10
97.14834406454819
 20
463.2232158034745
 30
0.0
 11
97.14834406454819
 21
462.3898824701411
 31
0.0
 12
99.64834406454819
 22
462.8065491368078
 32
0.0
 13
99.64834406454819
 23
462.8065491368078
 33
0.0
  0
MTEXT
  5
ED6
330
E62
100
AcDbEntity
  8
0
 62
     0
100
AcDbMText
 10
-350.1766559354518
 20
478.4315491368078
 30
0.0
 40
30.0
 41
0.0
 71
     5
 72
     1
  1
900
 73
     1
 44
1.0
  0
POINT
  5
ED7
330
E62
100
AcDbEntity
  8
Defpoints
 62
     0
100
AcDbPoint
 10
-800.0016559354518
 20
374.999277028894
 30
0.0
  0
POINT
  5
ED8
330
E62
100
AcDbEntity
  8
Defpoints
 62
     0
100
AcDbPoint
 10
99.64834406454819
 20
374.9992770288939
 30
0.0
  0
POINT
  5
ED9
330
E62
100
AcDbEntity
  8
Defpoints
 62
     0
100
AcDbPoint
 10
99.64834406454819
 20
462.8065491368078
 30
0.0
  0
ENDBLK
  5
E6D
330
E62
100
AcDbEntity
  8
0
100
AcDbBlockEnd
  0
BLOCK
  5
E78
330
E6E
100
AcDbEntity
  8
0
100
AcDbBlockBegin
  2
*D10
 70
     1
 10
0.0
 20
0.0
 30
0.0
  3
*D10
  1

  0
LINE
  5
F03
330
E6E
100
AcDbEntity
  8
0
 62
     0
370
    -2
100
AcDbLine
 10
-747.5016559354518
 20
361.874277028894
 30
0.0
 11
-747.5016559354518
 21
292.3317700637441
 31
0.0
  0
LINE
  5
F04
330
E6E
100
AcDbEntity
  8
0
 62
     0
370
    -2
100
AcDbLine
 10
47.49834406454819
 20
361.8742770288939
 30
0.0
 11
47.49834406454818
 21
292.3317700637441
 31
0.0
  0
LINE
  5
F05
330
E6E
100
AcDbEntity
  8
0
 62
     0
370
    -2
100
AcDbLine
 10
-745.0016559354518
 20
293.5817700637441
 30
0.0
 11
44.99834406454818
 21
293.5817700637441
 31
0.0
  0
SOLID
  5
F06
330
E6E
100
AcDbEntity
  8
0
 62
     0
100
AcDbTrace
 10
-745.0016559354518
 20
293.9984367304108
 30
0.0
 11
-745.0016559354518
 21
293.1651033970774
 31
0.0
 12
-747.5016559354518
 22
293.5817700637441
 32
0.0
 13
-747.5016559354518
 23
293.5817700637441
 33
0.0
  0
SOLID
  5
F07
330
E6E
100
AcDbEntity
  8
0
 62
     0
100
AcDbTrace
 10
44.99834406454818
 20
293.9984367304108
 30
0.0
 11
44.99834406454818
 21
293.1651033970774
 31
0.0
 12
47.49834406454818
 22
293.5817700637441
 32
0.0
 13
47.49834406454818
 23
293.5817700637441
 33
0.0
  0
MTEXT
  5
F08
330
E6E
100
AcDbEntity
  8
0
 62
     0
100
AcDbMText
 10
-350.0016559354518
 20
309.2067700637441
 30
0.0
 40
30.0
 41
0.0
 71
     5
 72
     1
  1
800
 73
     1
 44
1.0
  0
POINT
  5
F09
330
E6E
100
AcDbEntity
  8
Defpoints
 62
     0
100
AcDbPoint
 10
-747.5016559354518
 20
362.499277028894
 30
0.0
  0
POINT
  5
F0A
330
E6E
100
AcDbEntity
  8
Defpoints
 62
     0
100
AcDbPoint
 10
47.49834406454819
 20
362.4992770288939
 30
0.0
  0
POINT
  5
F0B
330
E6E
100
AcDbEntity
  8
Defpoints
 62
     0
100
AcDbPoint
 10
47.49834406454818
 20
293.5817700637441
 30
0.0
  0
ENDBLK
  5
E79
330
E6E
100
AcDbEntity
  8
0
100
AcDbBlockEnd
  0
ENDSEC
  0
SECTION
  2
ENTITIES
  0
LWPOLYLINE
  5
91A
330
1F
100
AcDbEntity
  8
0
370
    40
100
AcDbPolyline
 90
        2
 70
     0
 43
0.0
 10
-633.2296703857309
 20
0.0000000000000391
 10
-492.4789132944721
 20
0.0000000000000426
  0
CIRCLE
  5
973
102
{ACAD_REACTORS
330
B8E
102
}
330
1F
100
AcDbEntity
  8
0
370
    40
100
AcDbCircle
 10
-644.0
 20
12.50000000000004
 30
0.0
 40
16.5
  0
CIRCLE
  5
974
102
{ACAD_REACTORS
330
B8E
102
}
330
1F
100
AcDbEntity
  8
0
370
    40
100
AcDbCircle
 10
-64.0
 20
12.49999999999997
 30
0.0
 40
16.5
  0
LINE
  5
992
330
1F
100
AcDbEntity
  8
0
370
    40
100
AcDbLine
 10
-694.5
 20
0.0000000000000426
 30
0.0
 11
-694.5
 21
25.00000000000004
 31
0.0
  0
LINE
  5
994
330
1F
100
AcDbEntity
  8
0
370
    40
100
AcDbLine
 10
-13.85
 20
0.0
 30
0.0
 11
-13.85
 21
25.0
 31
0.0
  0
LWPOLYLINE
  5
A5F
102
{ACAD_REACTORS
330
BF6
102
}
330
1F
100
AcDbEntity
  8
0
370
    40
100
AcDbPolyline
 90
        4
 70
     0
 43
0.0
 10
-654.770329614269
 20
25.00000000000004
 10
-696.4999999999999
 20
25.00000000000004
 10
-696.4999999999999
 20
0.0000000000000434
 10
-654.770329614269
 20
0.0000000000000391
  0
LWPOLYLINE
  5
A60
330
1F
100
AcDbEntity
  8
0
370
    40
100
AcDbPolyline
 90
        4
 70
     0
 43
0.0
 10
-53.22967038573096
 20
0.0000000000000018
 10
-11.85
 20
0.0
 10
-11.85
 20
25.0
 10
-53.22967038573103
 20
25.0
  0
LWPOLYLINE
  5
A61
330
1F
100
AcDbEntity
  8
0
370
    40
100
AcDbPolyline
 90
        2
 70
     0
 43
0.0
 10
-74.77032961426897
 20
25.00000000000001
 10
-452.4789132944722
 20
25.00000000000003
  0
LWPOLYLINE
  5
A62
330
1F
100
AcDbEntity
  8
0
370
    40
100
AcDbPolyline
 90
        2
 70
     0
 43
0.0
 10
-452.4789132944721
 20
0.0000000000000277
 10
-74.77032961426904
 20
0.0000000000000036
  0
LWPOLYLINE
  5
A63
330
1F
100
AcDbEntity
  8
0
370
    40
100
AcDbPolyline
 90
        2
 70
     0
 43
0.0
 10
-492.4789132944721
 20
25.00000000000003
 10
-633.2296703857309
 20
25.00000000000003
  0
LWPOLYLINE
  5
A72
330
1F
100
AcDbEntity
  8
0
370
    40
100
AcDbPolyline
 90
        2
 70
     0
 43
0.0
 10
-80.50000000000006
 20
174.9999999999998
 10
-456.866418298476
 20
175.0
  0
LWPOLYLINE
  5
A73
330
1F
100
AcDbEntity
  8
0
370
    40
100
AcDbPolyline
 90
        2
 70
     0
 43
0.0
 10
-456.8664182984761
 20
150.0
 10
-80.49999999999998
 20
149.9999999999998
  0
LWPOLYLINE
  5
A74
102
{ACAD_REACTORS
330
B76
102
}
330
1F
100
AcDbEntity
  8
0
370
    40
100
AcDbPolyline
 90
        4
 70
     0
 43
0.0
 10
-47.49999999999997
 20
149.9999999999998
 10
-11.49999999999999
 20
150.0
 10
-11.49999999999999
 20
175.0
 10
-47.49999999999995
 20
174.9999999999998
  0
LINE
  5
A75
330
1F
100
AcDbEntity
  8
0
370
    40
100
AcDbLine
 10
-13.49999999999999
 20
150.0
 30
0.0
 11
-13.49999999999999
 21
175.0
 31
0.0
  0
LWPOLYLINE
  5
A77
330
1F
100
AcDbEntity
  8
0
370
    40
100
AcDbPolyline
 90
        2
 70
     0
 43
0.0
 10
-488.0914082904681
 20
175.0
 10
-627.4999999999998
 20
175.0
  0
LWPOLYLINE
  5
A78
330
1F
100
AcDbEntity
  8
0
370
    40
100
AcDbPolyline
 90
        2
 70
     0
 43
0.0
 10
-627.5
 20
150.0
 10
-488.0914082904681
 20
150.0
  0
LINE
  5
A8C
330
1F
100
AcDbEntity
  8
0
370
    40
100
AcDbLine
 10
-694.5
 20
150.0
 30
0.0
 11
-694.5
 21
175.0
 31
0.0
  0
LWPOLYLINE
  5
A8E
102
{ACAD_REACTORS
330
B76
102
}
330
1F
100
AcDbEntity
  8
0
370
    40
100
AcDbPolyline
 90
        4
 70
     0
 43
0.0
 10
-660.5
 20
175.0
 10
-696.4999999999999
 20
175.0
 10
-696.4999999999999
 20
150.0
 10
-660.4999999999998
 20
150.0
  0
LINE
  5
B0B
330
1F
100
AcDbEntity
  8
0
370
    40
100
AcDbLine
 10
-660.5
 20
120.0
 30
0.0
 11
-660.5
 21
150.0
 31
0.0
  0
LINE
  5
B0D
330
1F
100
AcDbEntity
  8
0
370
    40
100
AcDbLine
 10
-627.5
 20
150.0
 30
0.0
 11
-627.5
 21
120.0
 31
0.0
  0
LINE
  5
B0E
102
{ACAD_REACTORS
330
BB8
102
}
330
1F
100
AcDbEntity
  8
0
370
    40
100
AcDbLine
 10
-627.5
 20
120.0
 30
0.0
 11
-660.5
 21
120.0
 31
0.0
  0
LINE
  5
B0F
330
1F
100
AcDbEntity
  8
0
370
    40
100
AcDbLine
 10
-660.5
 20
175.0
 30
0.0
 11
-660.5
 21
184.6
 31
0.0
  0
LINE
  5
B10
330
1F
100
AcDbEntity
  8
0
370
    40
100
AcDbLine
 10
-660.5
 20
184.6
 30
0.0
 11
-627.5
 21
184.6
 31
0.0
  0
LINE
  5
B11
330
1F
100
AcDbEntity
  8
0
370
    40
100
AcDbLine
 10
-627.5
 20
184.6
 30
0.0
 11
-627.5
 21
175.0
 31
0.0
  0
ARC
  5
B4E
330
1F
100
AcDbEntity
  8
0
370
    40
100
AcDbCircle
 10
-671.270329614269
 20
162.5
 30
0.0
 40
16.49999999999999
100
AcDbArc
 50
310.7490543774705
 51
49.25094562252974
  0
ARC
  5
B4F
330
1F
100
AcDbEntity
  8
0
370
    40
100
AcDbCircle
 10
-616.7296703857312
 20
162.5
 30
0.0
 40
16.49999999999984
100
AcDbArc
 50
130.7490543774698
 51
229.2509456225301
  0
ARC
  5
B50
330
1F
100
AcDbEntity
  8
0
370
    40
100
AcDbCircle
 10
-36.72967038573118
 20
162.4999999999998
 30
0.0
 40
16.49999999999984
100
AcDbArc
 50
130.7490543774698
 51
229.2509456225301
  0
ARC
  5
B51
330
1F
100
AcDbEntity
  8
0
370
    40
100
AcDbCircle
 10
-91.27032961426902
 20
162.4999999999998
 30
0.0
 40
16.49999999999999
100
AcDbArc
 50
310.7490543774705
 51
49.25094562252974
  0
LINE
  5
B52
330
1F
100
AcDbEntity
  8
0
370
    40
100
AcDbLine
 10
-47.49999999999999
 20
149.9999999999998
 30
0.0
 11
-47.49999999999999
 21
119.9999999999998
 31
0.0
  0
LINE
  5
B53
330
1F
100
AcDbEntity
  8
0
370
    40
100
AcDbLine
 10
-80.49999999999998
 20
119.9999999999998
 30
0.0
 11
-80.49999999999998
 21
149.9999999999998
 31
0.0
  0
LINE
  5
B54
102
{ACAD_REACTORS
330
BB8
102
}
330
1F
100
AcDbEntity
  8
0
370
    40
100
AcDbLine
 10
-47.49999999999999
 20
119.9999999999998
 30
0.0
 11
-80.49999999999998
 21
119.9999999999998
 31
0.0
  0
LINE
  5
B55
330
1F
100
AcDbEntity
  8
0
370
    40
100
AcDbLine
 10
-47.49999999999999
 20
184.5999999999998
 30
0.0
 11
-47.49999999999999
 21
174.9999999999998
 31
0.0
  0
LINE
  5
B56
330
1F
100
AcDbEntity
  8
0
370
    40
100
AcDbLine
 10
-80.49999999999998
 20
174.9999999999998
 30
0.0
 11
-80.49999999999998
 21
184.5999999999998
 31
0.0
  0
LINE
  5
B57
330
1F
100
AcDbEntity
  8
0
370
    40
100
AcDbLine
 10
-80.49999999999998
 20
184.5999999999998
 30
0.0
 11
-47.49999999999999
 21
184.5999999999998
 31
0.0
  0
DIMENSION
  5
B5F
102
{ACAD_XDICTIONARY
360
B6C
102
}
102
{ACAD_REACTORS
330
B76
102
}
330
1F
100
AcDbEntity
  8
0
100
AcDbDimension
  2
*D1
 10
-11.49999999999999
 20
209.6124016596987
 30
0.0
 11
-354.0
 21
225.2374016596987
 31
0.0
 70
    32
 71
     5
 42
685.0
  3
ISO-25
100
AcDbAlignedDimension
 13
-696.4999999999999
 23
175.0
 33
0.0
 14
-11.49999999999999
 24
175.0
 34
0.0
100
AcDbRotatedDimension
1001
ACAD
1000
DSTYLE
1002
{
1070
   140
1040
30.0
1002
}
  0
DIMENSION
  5
B77
102
{ACAD_XDICTIONARY
360
B84
102
}
102
{ACAD_REACTORS
330
B8E
102
}
330
1F
100
AcDbEntity
  8
0
100
AcDbDimension
  2
*D2
 10
-64.0
 20
-82.09871867105096
 30
0.0
 11
-354.0
 21
-66.47371867105096
 31
0.0
 70
    32
 71
     5
 42
580.0
  3
ISO-25
100
AcDbAlignedDimension
 13
-644.0
 23
-3.999999999999957
 33
0.0
 14
-64.0
 24
-4.000000000000024
 34
0.0
100
AcDbRotatedDimension
1001
ACAD
1000
DSTYLE
1002
{
1070
   140
1040
30.0
1002
}
  0
DIMENSION
  5
BA1
102
{ACAD_XDICTIONARY
360
BAE
102
}
102
{ACAD_REACTORS
330
BB8
102
}
330
1F
100
AcDbEntity
  8
0
100
AcDbDimension
  2
*D3
 10
-63.99999999999998
 20
95.98897052054793
 30
0.0
 11
-354.0
 21
111.6139705205479
 31
0.0
 70
    32
 71
     5
 42
580.0
  3
ISO-25
100
AcDbAlignedDimension
 13
-644.0
 23
120.0
 33
0.0
 14
-63.99999999999998
 24
119.9999999999998
 34
0.0
100
AcDbRotatedDimension
1001
ACAD
1000
DSTYLE
1002
{
1070
   140
1040
30.0
1002
}
  0
DIMENSION
  5
BDF
102
{ACAD_XDICTIONARY
360
BEC
102
}
102
{ACAD_REACTORS
330
BF6
102
}
330
1F
100
AcDbEntity
  8
0
100
AcDbDimension
  2
*D4
 10
-715.1909288707634
 20
0.0000000000000486
 30
0.0
 11
-715.1909288707634
 21
12.49999999999993
 31
0.0
 70
   160
  1
%%c<>
 71
     5
 42
25.0
  3
ISO-25
100
AcDbAlignedDimension
 13
-696.4999999999999
 23
25.00000000000004
 33
0.0
 14
-696.4999999999999
 24
0.0000000000000434
 34
0.0
 50
90.0
100
AcDbRotatedDimension
1001
ACAD
1000
DSTYLE
1002
{
1070
   140
1040
30.0
1002
}
  0
CIRCLE
  5
C31
330
1F
100
AcDbEntity
  8
0
370
    40
100
AcDbCircle
 10
-472.4789132944721
 20
162.5
 30
0.0
 40
20.0
  0
LINE
  5
C33
330
1F
100
AcDbEntity
  8
0
370
    40
100
AcDbLine
 10
-453.938417076733
 20
170.0
 30
0.0
 11
-443.4789132944721
 21
170.0
 31
0.0
  0
LINE
  5
C34
330
1F
100
AcDbEntity
  8
0
370
    40
100
AcDbLine
 10
-443.4789132944721
 20
170.0
 30
0.0
 11
-443.4789132944721
 21
155.0
 31
0.0
  0
LINE
  5
C35
330
1F
100
AcDbEntity
  8
0
370
    40
100
AcDbLine
 10
-443.4789132944721
 20
155.0
 30
0.0
 11
-453.938417076733
 21
155.0
 31
0.0
  0
LWPOLYLINE
  5
C45
330
1F
100
AcDbEntity
  8
0
370
    40
100
AcDbPolyline
 90
        4
 70
     1
 43
0.0
 10
-492.4789132944721
 20
-34.0
 10
-452.4789132944721
 20
-34.0
 10
-452.4789132944721
 20
76.0
 10
-492.4789132944721
 20
76.0
  0
LINE
  5
C76
330
1F
100
AcDbEntity
  8
0
370
    40
100
AcDbLine
 10
-492.4789132944721
 20
35.0
 30
0.0
 11
-452.4789132944721
 21
35.0
 31
0.0
  0
LINE
  5
C77
330
1F
100
AcDbEntity
  8
0
370
    40
100
AcDbLine
 10
-452.4789132944721
 20
-20.00458245712321
 30
0.0
 11
-443.4756481536964
 21
-17.59216483340908
 31
0.0
  0
LINE
  5
C79
330
1F
100
AcDbEntity
  8
0
370
    40
100
AcDbLine
 10
-452.4789132944721
 20
-5.004582457123206
 30
0.0
 11
-443.4756481536964
 21
-2.592164833409084
 31
0.0
  0
LINE
  5
C7A
330
1F
100
AcDbEntity
  8
0
370
    40
100
AcDbLine
 10
-443.4756481536964
 20
-2.592164833409084
 30
0.0
 11
-443.4756481536964
 21
-17.59216483340908
 31
0.0
  0
LWPOLYLINE
  5
E3F
330
1F
100
AcDbEntity
  8
0
370
    40
100
AcDbPolyline
 90
        2
 70
     0
 43
0.0
 10
-452.4789132944721
 20
349.9992770288939
 10
36.72801445027914
 20
349.9992770288939
  0
LWPOLYLINE
  5
E40
330
1F
100
AcDbEntity
  8
0
370
    40
100
AcDbPolyline
 90
        2
 70
     0
 43
0.0
 10
36.72801445027921
 20
374.9992770288939
 10
-448.4805692299239
 20
374.9992770288939
  0
LWPOLYLINE
  5
E41
330
1F
100
AcDbEntity
  8
0
370
    40
100
AcDbPolyline
 90
        2
 70
     0
 43
0.0
 10
-496.4805692299239
 20
374.999277028894
 10
-736.7313263211827
 20
374.999277028894
  0
LWPOLYLINE
  5
E42
330
1F
100
AcDbEntity
  8
0
370
    40
100
AcDbPolyline
 90
        2
 70
     0
 43
0.0
 10
-736.7313263211827
 20
349.9992770288939
 10
-492.4789132944721
 20
349.9992770288939
  0
LWPOLYLINE
  5
E43
102
{ACAD_REACTORS
330
E5E
102
}
330
1F
100
AcDbEntity
  8
0
370
    40
100
AcDbPolyline
 90
        4
 70
     0
 43
0.0
 10
-758.2719855497209
 20
374.999277028894
 10
-800.0016559354518
 20
374.999277028894
 10
-800.0016559354518
 20
349.999277028894
 10
-758.2719855497209
 20
349.9992770288939
  0
LINE
  5
E44
330
1F
100
AcDbEntity
  8
0
370
    40
100
AcDbLine
 10
-798.0016559354518
 20
349.999277028894
 30
0.0
 11
-798.0016559354518
 21
374.999277028894
 31
0.0
  0
CIRCLE
  5
E45
102
{ACAD_REACTORS
330
E61
102
}
330
1F
100
AcDbEntity
  8
0
370
    40
100
AcDbCircle
 10
-747.5016559354518
 20
362.499277028894
 30
0.0
 40
16.5
  0
CIRCLE
  5
E59
102
{ACAD_REACTORS
330
E61
102
}
330
1F
100
AcDbEntity
  8
0
370
    40
100
AcDbCircle
 10
47.49834406454819
 20
362.4992770288939
 30
0.0
 40
16.5
  0
LWPOLYLINE
  5
E5A
102
{ACAD_REACTORS
330
E5E
102
}
330
1F
100
AcDbEntity
  8
0
370
    40
100
AcDbPolyline
 90
        4
 70
     0
 43
0.0
 10
58.26867367881722
 20
349.9992770288939
 10
99.64834406454819
 20
349.9992770288939
 10
99.64834406454819
 20
374.9992770288939
 10
58.26867367881716
 20
374.9992770288939
  0
LINE
  5
E5B
330
1F
100
AcDbEntity
  8
0
370
    40
100
AcDbLine
 10
97.64834406454816
 20
349.9992770288939
 30
0.0
 11
97.64834406454816
 21
374.9992770288939
 31
0.0
  0
DIMENSION
  5
E5C
102
{ACAD_XDICTIONARY
360
E5D
102
}
102
{ACAD_REACTORS
330
E5E
102
}
330
1F
100
AcDbEntity
  8
0
100
AcDbDimension
  2
*D9
 10
99.64834406454819
 20
462.8065491368078
 30
0.0
 11
-350.1766559354518
 21
478.4315491368078
 31
0.0
 70
    32
  1
900
 71
     5
 42
899.6499999999999
  3
ISO-25
100
AcDbAlignedDimension
 13
-800.0016559354518
 23
374.999277028894
 33
0.0
 14
99.64834406454819
 24
374.9992770288939
 34
0.0
100
AcDbRotatedDimension
1001
ACAD
1000
DSTYLE
1002
{
1070
   140
1040
30.0
1002
}
  0
DIMENSION
  5
E5F
102
{ACAD_XDICTIONARY
360
E60
102
}
102
{ACAD_REACTORS
330
E61
102
}
330
1F
100
AcDbEntity
  8
0
100
AcDbDimension
  2
*D10
 10
47.49834406454818
 20
293.5817700637441
 30
0.0
 11
-350.0016559354518
 21
293.5817700637441
 31
0.0
 70
   160
  1
800
 71
     5
 42
795.0
  3
ISO-25
100
AcDbAlignedDimension
 13
-747.5016559354518
 23
362.499277028894
 33
0.0
 14
47.49834406454819
 24
362.4992770288939
 34
0.0
100
AcDbRotatedDimension
1001
ACAD
1000
DSTYLE
1002
{
1070
   140
1040
30.0
1002
}
  0
LINE
  5
EB4
330
1F
100
AcDbEntity
  8
0
100
AcDbLine
 10
-496.4805692299239
 20
374.999277028894
 30
0.0
 11
-492.4789132944721
 21
374.999277028894
 31
0.0
  0
LWPOLYLINE
  5
EFB
330
1F
100
AcDbEntity
  8
0
370
    40
100
AcDbPolyline
 90
        4
 70
     1
 43
0.0
 10
-492.4789132944721
 20
316.0
 10
-452.4789132944721
 20
316.0
 10
-452.4789132944721
 20
426.0
 10
-492.4789132944721
 20
426.0
  0
LINE
  5
EFC
330
1F
100
AcDbEntity
  8
0
370
    40
100
AcDbLine
 10
-492.4789132944721
 20
385.0
 30
0.0
 11
-452.4789132944721
 21
385.0
 31
0.0
  0
LINE
  5
EFD
330
1F
100
AcDbEntity
  8
0
370
    40
100
AcDbLine
 10
-452.4789132944721
 20
329.9954175428768
 30
0.0
 11
-443.4756481536964
 21
332.4078351665909
 31
0.0
  0
LINE
  5
EFE
330
1F
100
AcDbEntity
  8
0
370
    40
100
AcDbLine
 10
-452.4789132944721
 20
344.9954175428768
 30
0.0
 11
-443.4756481536964
 21
347.4078351665909
 31
0.0
  0
LINE
  5
EFF
330
1F
100
AcDbEntity
  8
0
370
    40
100
AcDbLine
 10
-443.4756481536964
 20
347.4078351665909
 30
0.0
 11
-443.4756481536964
 21
332.4078351665909
 31
0.0
  0
LINE
  5
F00
330
1F
100
AcDbEntity
  8
0
100
AcDbLine
 10
-452.4789132944721
 20
374.9992770288939
 30
0.0
 11
-448.4805692299239
 21
374.9992770288939
 31
0.0
  0
ENDSEC
  0
SECTION
  2
OBJECTS
  0
DICTIONARY
  5
C
330
0
100
AcDbDictionary
281
     1
  3
ACAD_BACKGROUND
350
D56
  3
ACAD_COLOR
350
D50
  3
ACAD_GROUP
350
D
  3
ACAD_LAYOUT
350
1A
  3
ACAD_MATERIAL
350
D3B
  3
ACAD_MLEADERSTYLE
350
F3B
  3
ACAD_MLINESTYLE
350
17
  3
ACAD_PLOTSETTINGS
350
19
  3
ACAD_PLOTSTYLENAME
350
E
  3
ACAD_SCALELIST
350
F19
  3
ACAD_TABLESTYLE
350
D51
  3
ACAD_VISUALSTYLE
350
D3F
  3
ACDB_RECOMPOSE_DATA
350
F62
  3
AcDbVariableDictionary
350
107
  3
AcmDictionary
350
DB7
  3
AMG
350
D5A
  3
AMGSNAPSETTINGS
350
E37
  0
DICTIONARY
  5
F5B
330
10
100
AcDbDictionary
280
     1
281
     1
  3
ADSK_XREC_LAYER_RECONCILED
360
F5C
  0
DICTIONARY
  5
F01
330
1F
100
AcDbDictionary
280
     1
281
     1
  3
ACAD_SORTENTS
360
F02
  0
DICTIONARY
  5
B6C
330
B5F
100
AcDbDictionary
280
     1
281
     1
  3
ACAD_DIMASSOC
360
B76
  0
DICTIONARY
  5
B84
330
B77
100
AcDbDictionary
280
     1
281
     1
  3
ACAD_DIMASSOC
360
B8E
  0
DICTIONARY
  5
BAE
330
BA1
100
AcDbDictionary
280
     1
281
     1
  3
ACAD_DIMASSOC
360
BB8
  0
DICTIONARY
  5
BEC
330
BDF
100
AcDbDictionary
280
     1
281
     1
  3
ACAD_DIMASSOC
360
BF6
  0
DICTIONARY
  5
E5D
330
E5C
100
AcDbDictionary
280
     1
281
     1
  3
ACAD_DIMASSOC
360
E5E
  0
DICTIONARY
  5
E60
330
E5F
100
AcDbDictionary
280
     1
281
     1
  3
ACAD_DIMASSOC
360
E61
  0
DICTIONARY
  5
D56
102
{ACAD_REACTORS
330
C
102
}
330
C
100
AcDbDictionary
281
     1
  0
DICTIONARY
  5
D50
102
{ACAD_REACTORS
330
C
102
}
330
C
100
AcDbDictionary
281
     1
  0
DICTIONARY
  5
D
102
{ACAD_REACTORS
330
C
102
}
330
C
100
AcDbDictionary
281
     1
  0
DICTIONARY
  5
1A
102
{ACAD_REACTORS
330
C
102
}
330
C
100
AcDbDictionary
281
     1
  3
Layout1
350
1E
  3
Layout2
350
26
  3
Model
350
22
  0
DICTIONARY
  5
D3B
102
{ACAD_REACTORS
330
C
102
}
330
C
100
AcDbDictionary
281
     1
  3
ByBlock
350
D3D
  3
ByLayer
350
D3C
  3
Global
350
D3E
  0
DICTIONARY
  5
F3B
102
{ACAD_REACTORS
330
C
102
}
330
C
100
AcDbDictionary
281
     1
  3
Standard
350
F3C
  0
DICTIONARY
  5
17
102
{ACAD_REACTORS
330
C
102
}
330
C
100
AcDbDictionary
281
     1
  3
Standard
350
18
  0
DICTIONARY
  5
19
102
{ACAD_REACTORS
330
C
102
}
330
C
100
AcDbDictionary
281
     1
  0
ACDBDICTIONARYWDFLT
  5
E
102
{ACAD_REACTORS
330
C
102
}
330
C
100
AcDbDictionary
281
     1
  3
Normal
350
F
100
AcDbDictionaryWithDefault
340
F
  0
DICTIONARY
  5
F19
102
{ACAD_REACTORS
330
C
102
}
330
C
100
AcDbDictionary
281
     1
  3
A0
350
F1A
  3
A1
350
F1B
  3
A2
350
F1C
  3
A3
350
F1D
  3
A4
350
F1E
  3
A5
350
F1F
  3
A6
350
F20
  3
A7
350
F21
  3
A8
350
F22
  3
A9
350
F23
  3
B0
350
F24
  3
B1
350
F25
  3
B2
350
F26
  3
B3
350
F27
  3
B4
350
F28
  3
B5
350
F29
  3
B6
350
F2A
  3
B7
350
F2B
  3
B8
350
F2C
  3
B9
350
F2D
  3
C0
350
F2E
  3
C1
350
F2F
  3
C2
350
F30
  3
C3
350
F31
  3
C4
350
F32
  3
C5
350
F33
  3
C6
350
F34
  3
C7
350
F35
  3
C8
350
F36
  3
C9
350
F37
  3
D0
350
F38
  3
D1
350
F39
  3
D2
350
F3A
  0
DICTIONARY
  5
D51
102
{ACAD_REACTORS
330
C
102
}
330
C
100
AcDbDictionary
281
     1
  3
Standard
350
D52
  0
DICTIONARY
  5
D3F
102
{ACAD_REACTORS
330
C
102
}
330
C
100
AcDbDictionary
281
     1
  3
*A1
350
D55
  3
*A3
350
F5F
  3
2dWireframe
350
D45
  3
3D Hidden
350
D47
  3
3dWireframe
350
D46
  3
Basic
350
D44
  3
Brighten
350
D4B
  3
ColorChange
350
D4F
  3
Conceptual
350
D48
  3
Dim
350
D4A
  3
Facepattern
350
D4E
  3
Flat
350
D40
  3
FlatWithEdges
350
D41
  3
Gouraud
350
D42
  3
GouraudWithEdges
350
D43
  3
Linepattern
350
D4D
  3
Realistic
350
D49
  3
Thicken
350
D4C
  0
XRECORD
  5
F62
102
{ACAD_REACTORS
330
C
102
}
330
C
100
AcDbXrecord
280
     1
 90
        1
330
D52
  0
DICTIONARY
  5
107
102
{ACAD_REACTORS
330
C
102
}
330
C
100
AcDbDictionary
281
     1
  3
CANNOSCALE
350
F5E
  3
CMLEADERSTYLE
350
F5D
  3
CTABLESTYLE
350
F17
  3
DIMASSOC
350
109
  3
HIDETEXT
350
108
  0
DICTIONARY
  5
DB7
102
{ACAD_REACTORS
330
C
102
}
330
C
100
AcDbDictionary
281
     1
  3
AcmStdDictionary
350
DC2
  3
AMDTSECTSYM_ARROWCOLOR
350
DE1
  0
DICTIONARY
  5
D5A
102
{ACAD_REACTORS
330
C
102
}
330
C
100
AcDbDictionary
281
     1
  0
DICTIONARY
  5
E37
102
{ACAD_REACTORS
330
C
102
}
330
C
100
AcDbDictionary
281
     1
  0
XRECORD
  5
F5C
102
{ACAD_REACTORS
330
F5B
102
}
330
F5B
100
AcDbXrecord
280
     1
290
     1
  0
SORTENTSTABLE
  5
F02
102
{ACAD_REACTORS
330
F01
102
}
330
F01
100
AcDbSortentsTable
330
1F
331
A78
  5
A78
331
EFF
  5
F00
331
C76
  5
C76
331
B77
  5
B77
331
C35
  5
C35
331
EFE
  5
EFF
331
B57
  5
B57
331
E5F
  5
E5F
331
C34
  5
C34
331
B56
  5
B56
331
EFD
  5
EFE
331
A8E
  5
A8E
331
C33
  5
C33
331
EFC
  5
EFD
331
B55
  5
B55
331
B54
  5
B54
331
EFB
  5
EFC
331
E45
  5
E45
331
A8C
  5
A8C
331
C31
  5
C31
331
B53
  5
B53
331
E5C
  5
E5C
331
E44
  5
E44
331
BA1
  5
BA1
331
B52
  5
B52
331
E5B
  5
E5B
331
E43
  5
E43
331
A63
  5
A63
331
994
  5
994
331
B51
  5
B51
331
E5A
  5
E5A
331
E42
  5
E42
331
A62
  5
A62
331
B50
  5
B50
331
E59
  5
E59
331
B11
  5
B11
331
91A
  5
91A
331
E41
  5
E41
331
A61
  5
A61
331
992
  5
992
331
B4F
  5
B4F
331
B10
  5
B10
331
C45
  5
C45
331
E40
  5
E40
331
B5F
  5
B5F
331
A60
  5
A60
331
B4E
  5
B4E
331
B0F
  5
B0F
331
E3F
  5
E3F
331
A5F
  5
A5F
331
B0E
  5
B0E
331
A77
  5
A77
331
C7A
  5
C7A
331
B0D
  5
B0D
331
C79
  5
C79
331
A75
  5
A75
331
EB4
  5
EB4
331
A74
  5
A74
331
B0B
  5
B0B
331
974
  5
974
331
A73
  5
A73
331
F00
  5
EFB
331
973
  5
973
331
A72
  5
A72
331
BDF
  5
BDF
331
C77
  5
C77
  0
DIMASSOC
  5
B76
102
{ACAD_REACTORS
330
B6C
102
}
330
B6C
100
AcDbDimAssoc
330
B5F
 90
        3
 70
     0
 71
     0
  1
AcDbOsnapPointRef
 72
    13
331
A8E
 73
     2
 91
        2
 40
0.0
 10
-696.4999999999999
 20
175.0
 30
0.0
 75
     0
  1
AcDbOsnapPointRef
 72
     1
331
A74
 73
     2
 91
        2
 40
1.0
 10
-11.49999999999999
 20
175.0
 30
0.0
 75
     0
  0
DIMASSOC
  5
B8E
102
{ACAD_REACTORS
330
B84
102
}
330
B84
100
AcDbDimAssoc
330
B77
 90
        3
 70
     0
 71
     0
  1
AcDbOsnapPointRef
 72
     5
331
973
 73
     2
 91
        0
 40
4.712388980384689
 10
-644.0
 20
-3.999999999999957
 30
0.0
 75
     0
  1
AcDbOsnapPointRef
 72
     9
331
974
 73
     2
 91
        0
 40
4.712388980384689
 10
-64.0
 20
-4.000000000000024
 30
0.0
 75
     1
  1
AcDbOsnapPointRef
 72
     5
331
973
 73
     2
 91
        0
 40
4.712388980384689
 10
-644.0
 20
-3.999999999999957
 30
0.0
 75
     0
  0
DIMASSOC
  5
BB8
102
{ACAD_REACTORS
330
BAE
102
}
330
BAE
100
AcDbDimAssoc
330
BA1
 90
        3
 70
     0
 71
     0
  1
AcDbOsnapPointRef
 72
     2
331
B0E
 73
     2
 91
        0
 40
0.5
 10
-644.0
 20
120.0
 30
0.0
 75
     0
  1
AcDbOsnapPointRef
 72
     2
331
B54
 73
     2
 91
        0
 40
0.5
 10
-63.99999999999998
 20
119.9999999999998
 30
0.0
 75
     0
  0
DIMASSOC
  5
BF6
102
{ACAD_REACTORS
330
BEC
102
}
330
BEC
100
AcDbDimAssoc
330
BDF
 90
        3
 70
     0
 71
     0
  1
AcDbOsnapPointRef
 72
     1
331
A5F
 73
     2
 91
        1
 40
1.0
 10
-696.4999999999999
 20
25.00000000000004
 30
0.0
 75
     0
  1
AcDbOsnapPointRef
 72
     1
331
A5F
 73
     2
 91
        2
 40
1.0
 10
-696.4999999999999
 20
0.0000000000000434
 30
0.0
 75
     0
  0
DIMASSOC
  5
E5E
102
{ACAD_REACTORS
330
E5D
102
}
330
E5D
100
AcDbDimAssoc
330
E5C
 90
        3
 70
     0
 71
     0
  1
AcDbOsnapPointRef
 72
     1
331
E43
 73
     2
 91
        1
 40
1.0
 10
-804.0
 20
275.0
 30
0.0
 75
     0
  1
AcDbOsnapPointRef
 72
     1
331
E5A
 73
     2
 91
        2
 40
1.0
 10
95.65000000000001
 20
275.0
 30
0.0
 75
     0
  0
DIMASSOC
  5
E61
102
{ACAD_REACTORS
330
E60
102
}
330
E60
100
AcDbDimAssoc
330
E5F
 90
        3
 70
     0
 71
     0
  1
AcDbOsnapPointRef
 72
     3
331
E45
 73
     2
 91
        0
 40
0.0
 10
0.0
 20
0.0
 30
0.0
 75
     0
  1
AcDbOsnapPointRef
 72
     3
331
E59
 73
     2
 91
        0
 40
0.0
 10
0.0
 20
0.0
 30
0.0
 75
     0
  0
LAYOUT
  5
1E
102
{ACAD_REACTORS
330
1A
102
}
330
1A
100
AcDbPlotSettings
  1

  2
HP DeskJet 670C
  4

  6

 40
0.0
 41
0.0
 42
0.0
 43
0.0
 44
0.0
 45
0.0
 46
0.0
 47
0.0
 48
0.0
 49
0.0
140
0.0
141
0.0
142
1.0
143
1.0
 70
   688
 72
     0
 73
     0
 74
     5
  7

 75
    16
147
1.0
 76
     0
 77
     2
 78
   300
148
0.0
149
0.0
100
AcDbLayout
  1
Layout1
 70
     1
 71
     1
 10
0.0
 20
0.0
 11
420.0
 21
297.0
 12
0.0
 22
0.0
 32
0.0
 14
1.000000000000000E+20
 24
1.000000000000000E+20
 34
1.000000000000000E+20
 15
-1.000000000000000E+20
 25
-1.000000000000000E+20
 35
-1.000000000000000E+20
146
0.0
 13
0.0
 23
0.0
 33
0.0
 16
1.0
 26
0.0
 36
0.0
 17
0.0
 27
1.0
 37
0.0
 76
     0
330
1B
  0
LAYOUT
  5
26
102
{ACAD_REACTORS
330
1A
102
}
330
1A
100
AcDbPlotSettings
  1

  2
HP DeskJet 670C
  4

  6

 40
0.0
 41
0.0
 42
0.0
 43
0.0
 44
0.0
 45
0.0
 46
0.0
 47
0.0
 48
0.0
 49
0.0
140
0.0
141
0.0
142
1.0
143
1.0
 70
   688
 72
     0
 73
     0
 74
     5
  7

 75
    16
147
1.0
 76
     0
 77
     2
 78
   300
148
0.0
149
0.0
100
AcDbLayout
  1
Layout2
 70
     1
 71
     2
 10
0.0
 20
0.0
 11
12.0
 21
9.0
 12
0.0
 22
0.0
 32
0.0
 14
0.0
 24
0.0
 34
0.0
 15
0.0
 25
0.0
 35
0.0
146
0.0
 13
0.0
 23
0.0
 33
0.0
 16
1.0
 26
0.0
 36
0.0
 17
0.0
 27
1.0
 37
0.0
 76
     0
330
23
  0
LAYOUT
  5
22
102
{ACAD_REACTORS
330
1A
102
}
330
1A
100
AcDbPlotSettings
  1

  2
HP DeskJet 670C
  4
A4
  6

 40
4.180416584014892
 41
16.71108436584473
 42
4.180404663085937
 43
4.011077880859375
 44
209.9733276367187
 45
296.9259948730469
 46
0.0
 47
0.0
 48
0.0
 49
0.0
140
0.0
141
0.0
142
1.0
143
1.0
 70
 11952
 72
     1
 73
     1
 74
     0
  7

 75
     0
147
1.0
 76
     0
 77
     2
 78
   300
148
395.6802063991092
149
395.249108189437
100
AcDbLayout
  1
Model
 70
     1
 71
     0
 10
0.0
 20
0.0
 11
12.0
 21
9.0
 12
0.0
 22
0.0
 32
0.0
 14
0.0
 24
0.0
 34
0.0
 15
0.0
 25
0.0
 35
0.0
146
0.0
 13
0.0
 23
0.0
 33
0.0
 16
1.0
 26
0.0
 36
0.0
 17
0.0
 27
1.0
 37
0.0
 76
     0
330
1F
331
D39
  0
MATERIAL
  5
D3D
102
{ACAD_XDICTIONARY
360
F65
102
}
102
{ACAD_REACTORS
330
D3B
102
}
330
D3B
100
AcDbMaterial
  1
ByBlock
 73
     1
 78
     1
172
     1
176
     1
270
     1
274
     1
  0
MATERIAL
  5
D3C
102
{ACAD_XDICTIONARY
360
F63
102
}
102
{ACAD_REACTORS
330
D3B
102
}
330
D3B
100
AcDbMaterial
  1
ByLayer
 73
     1
 78
     1
172
     1
176
     1
270
     1
274
     1
  0
MATERIAL
  5
D3E
102
{ACAD_XDICTIONARY
360
F67
102
}
102
{ACAD_REACTORS
330
D3B
102
}
330
D3B
100
AcDbMaterial
  1
Global
 73
     1
 78
     1
172
     1
176
     1
270
     1
274
     1
  0
MLEADERSTYLE
  5
F3C
102
{ACAD_REACTORS
330
F3B
102
}
330
F3B
100
AcDbMLeaderStyle
170
     2
171
     1
172
     0
 90
        2
 40
0.0
 41
0.0
173
     1
 91
-1056964608
340
14
 92
       -2
290
     1
 42
2.0
291
     1
 43
0.36
  3
Standard
 44
4.0
300

342
11
174
     1
178
     6
175
     1
176
     0
 93
-1056964608
 45
4.0
292
     0
297
     0
 46
4.0
 94
-1056964608
 47
1.0
 49
1.0
140
1.0
293
     1
141
0.0
294
     1
177
     0
142
1.0
295
     0
296
     0
143
0.125
1001
ACAD_MLEADERVER
1070
     2
  0
MLINESTYLE
  5
18
102
{ACAD_REACTORS
330
17
102
}
330
17
100
AcDbMlineStyle
  2
STANDARD
 70
     0
  3

 62
   256
 51
90.0
 52
90.0
 71
     2
 49
0.5
 62
   256
  6
BYLAYER
 49
-0.5
 62
   256
  6
BYLAYER
  0
ACDBPLACEHOLDER
  5
F
102
{ACAD_REACTORS
330
E
102
}
330
E
  0
SCALE
  5
F1A
102
{ACAD_REACTORS
330
F19
102
}
330
F19
100
AcDbScale
 70
     0
300
1:1
140
1.0
141
1.0
290
     1
  0
SCALE
  5
F1B
102
{ACAD_REACTORS
330
F19
102
}
330
F19
100
AcDbScale
 70
     0
300
1:2
140
1.0
141
2.0
290
     0
  0
SCALE
  5
F1C
102
{ACAD_REACTORS
330
F19
102
}
330
F19
100
AcDbScale
 70
     0
300
1:4
140
1.0
141
4.0
290
     0
  0
SCALE
  5
F1D
102
{ACAD_REACTORS
330
F19
102
}
330
F19
100
AcDbScale
 70
     0
300
1:5
140
1.0
141
5.0
290
     0
  0
SCALE
  5
F1E
102
{ACAD_REACTORS
330
F19
102
}
330
F19
100
AcDbScale
 70
     0
300
1:8
140
1.0
141
8.0
290
     0
  0
SCALE
  5
F1F
102
{ACAD_REACTORS
330
F19
102
}
330
F19
100
AcDbScale
 70
     0
300
1:10
140
1.0
141
10.0
290
     0
  0
SCALE
  5
F20
102
{ACAD_REACTORS
330
F19
102
}
330
F19
100
AcDbScale
 70
     0
300
1:16
140
1.0
141
16.0
290
     0
  0
SCALE
  5
F21
102
{ACAD_REACTORS
330
F19
102
}
330
F19
100
AcDbScale
 70
     0
300
1:20
140
1.0
141
20.0
290
     0
  0
SCALE
  5
F22
102
{ACAD_REACTORS
330
F19
102
}
330
F19
100
AcDbScale
 70
     0
300
1:30
140
1.0
141
30.0
290
     0
  0
SCALE
  5
F23
102
{ACAD_REACTORS
330
F19
102
}
330
F19
100
AcDbScale
 70
     0
300
1:40
140
1.0
141
40.0
290
     0
  0
SCALE
  5
F24
102
{ACAD_REACTORS
330
F19
102
}
330
F19
100
AcDbScale
 70
     0
300
1:50
140
1.0
141
50.0
290
     0
  0
SCALE
  5
F25
102
{ACAD_REACTORS
330
F19
102
}
330
F19
100
AcDbScale
 70
     0
300
1:100
140
1.0
141
100.0
290
     0
  0
SCALE
  5
F26
102
{ACAD_REACTORS
330
F19
102
}
330
F19
100
AcDbScale
 70
     0
300
2:1
140
2.0
141
1.0
290
     0
  0
SCALE
  5
F27
102
{ACAD_REACTORS
330
F19
102
}
330
F19
100
AcDbScale
 70
     0
300
4:1
140
4.0
141
1.0
290
     0
  0
SCALE
  5
F28
102
{ACAD_REACTORS
330
F19
102
}
330
F19
100
AcDbScale
 70
     0
300
8:1
140
8.0
141
1.0
290
     0
  0
SCALE
  5
F29
102
{ACAD_REACTORS
330
F19
102
}
330
F19
100
AcDbScale
 70
     0
300
10:1
140
10.0
141
1.0
290
     0
  0
SCALE
  5
F2A
102
{ACAD_REACTORS
330
F19
102
}
330
F19
100
AcDbScale
 70
     0
300
100:1
140
100.0
141
1.0
290
     0
  0
SCALE
  5
F2B
102
{ACAD_REACTORS
330
F19
102
}
330
F19
100
AcDbScale
 70
     0
300
1/128" = 1'-0"
140
0.0078125
141
12.0
290
     0
  0
SCALE
  5
F2C
102
{ACAD_REACTORS
330
F19
102
}
330
F19
100
AcDbScale
 70
     0
300
1/64" = 1'-0"
140
0.015625
141
12.0
290
     0
  0
SCALE
  5
F2D
102
{ACAD_REACTORS
330
F19
102
}
330
F19
100
AcDbScale
 70
     0
300
1/32" = 1'-0"
140
0.03125
141
12.0
290
     0
  0
SCALE
  5
F2E
102
{ACAD_REACTORS
330
F19
102
}
330
F19
100
AcDbScale
 70
     0
300
1/16" = 1'-0"
140
0.0625
141
12.0
290
     0
  0
SCALE
  5
F2F
102
{ACAD_REACTORS
330
F19
102
}
330
F19
100
AcDbScale
 70
     0
300
3/32" = 1'-0"
140
0.09375
141
12.0
290
     0
  0
SCALE
  5
F30
102
{ACAD_REACTORS
330
F19
102
}
330
F19
100
AcDbScale
 70
     0
300
1/8" = 1'-0"
140
0.125
141
12.0
290
     0
  0
SCALE
  5
F31
102
{ACAD_REACTORS
330
F19
102
}
330
F19
100
AcDbScale
 70
     0
300
3/16" = 1'-0"
140
0.1875
141
12.0
290
     0
  0
SCALE
  5
F32
102
{ACAD_REACTORS
330
F19
102
}
330
F19
100
AcDbScale
 70
     0
300
1/4" = 1'-0"
140
0.25
141
12.0
290
     0
  0
SCALE
  5
F33
102
{ACAD_REACTORS
330
F19
102
}
330
F19
100
AcDbScale
 70
     0
300
3/8" = 1'-0"
140
0.375
141
12.0
290
     0
  0
SCALE
  5
F34
102
{ACAD_REACTORS
330
F19
102
}
330
F19
100
AcDbScale
 70
     0
300
1/2" = 1'-0"
140
0.5
141
12.0
290
     0
  0
SCALE
  5
F35
102
{ACAD_REACTORS
330
F19
102
}
330
F19
100
AcDbScale
 70
     0
300
3/4" = 1'-0"
140
0.75
141
12.0
290
     0
  0
SCALE
  5
F36
102
{ACAD_REACTORS
330
F19
102
}
330
F19
100
AcDbScale
 70
     0
300
1" = 1'-0"
140
1.0
141
12.0
290
     0
  0
SCALE
  5
F37
102
{ACAD_REACTORS
330
F19
102
}
330
F19
100
AcDbScale
 70
     0
300
1-1/2" = 1'-0"
140
1.5
141
12.0
290
     0
  0
SCALE
  5
F38
102
{ACAD_REACTORS
330
F19
102
}
330
F19
100
AcDbScale
 70
     0
300
3" = 1'-0"
140
3.0
141
12.0
290
     0
  0
SCALE
  5
F39
102
{ACAD_REACTORS
330
F19
102
}
330
F19
100
AcDbScale
 70
     0
300
6" = 1'-0"
140
6.0
141
12.0
290
     0
  0
SCALE
  5
F3A
102
{ACAD_REACTORS
330
F19
102
}
330
F19
100
AcDbScale
 70
     0
300
1'-0" = 1'-0"
140
12.0
141
12.0
290
     0
  0
TABLESTYLE
  5
D52
102
{ACAD_XDICTIONARY
360
F60
102
}
102
{ACAD_REACTORS
330
D51
102
}
330
D51
100
AcDbTableStyle
  3
Standard
 70
     0
 71
     0
 40
1.5
 41
1.5
280
     0
281
     0
  7
Standard
140
4.5
170
     2
 62
     0
 63
     7
283
     0
274
    -2
284
     1
 64
     0
275
    -2
285
     1
 65
     0
276
    -2
286
     1
 66
     0
277
    -2
287
     1
 67
     0
278
    -2
288
     1
 68
     0
279
    -2
289
     1
 69
     0
  7
Standard
140
6.0
170
     5
 62
     0
 63
     7
283
     0
274
    -2
284
     1
 64
     0
275
    -2
285
     1
 65
     0
276
    -2
286
     1
 66
     0
277
    -2
287
     1
 67
     0
278
    -2
288
     1
 68
     0
279
    -2
289
     1
 69
     0
  7
Standard
140
4.5
170
     5
 62
     0
 63
     7
283
     0
274
    -2
284
     1
 64
     0
275
    -2
285
     1
 65
     0
276
    -2
286
     1
 66
     0
277
    -2
287
     1
 67
     0
278
    -2
288
     1
 68
     0
279
    -2
289
     1
 69
     0
  0
VISUALSTYLE
  5
D55
102
{ACAD_REACTORS
330
D3F
102
}
330
D3F
100
AcDbVisualStyle
  2
*
 70
    10
 71
     0
 72
     2
 73
     0
 90
        0
 40
-0.6
 41
-30.0
 62
     5
 63
     7
421
 16777215
 74
     1
 91
        6
 64
     7
 65
   257
 75
     1
175
     1
 42
1.0
 92
        0
 66
   257
 43
1.0
 76
     1
 77
     6
 78
     2
 67
     7
 79
     1
170
     0
171
     0
290
     0
174
     0
 93
        1
 44
0.0
173
     0
291
     0
 45
0.0
1001
ACAD
1000
AcDbSavedByObjectVersion
1070
     0
  0
VISUALSTYLE
  5
F5F
102
{ACAD_REACTORS
330
D3F
102
}
330
D3F
100
AcDbVisualStyle
  2
*
 70
    10
 71
     0
 72
     2
 73
     0
 90
        0
 40
-0.6
 41
-30.0
 62
     5
 63
     7
421
 16777215
 74
     1
 91
        6
 64
     7
 65
   257
 75
     1
175
     1
 42
1.0
 92
        0
 66
   257
 43
1.0
 76
     1
 77
     6
 78
     2
 67
     7
 79
     1
170
     0
171
     0
290
     0
174
     0
 93
        1
 44
0.0
173
     0
291
     0
 45
0.0
1001
ACAD
1000
AcDbSavedByObjectVersion
1070
     0
  0
VISUALSTYLE
  5
D45
102
{ACAD_REACTORS
330
D3F
102
}
330
D3F
100
AcDbVisualStyle
  2
2dWireframe
 70
     4
 71
     0
 72
     2
 73
     0
 90
        0
 40
-0.6
 41
-30.0
 62
     5
 63
     7
421
 16777215
 74
     1
 91
        4
 64
     7
 65
   257
 75
     1
175
     1
 42
1.0
 92
        0
 66
   257
 43
1.0
 76
     1
 77
     6
 78
     2
 67
     7
 79
     5
170
     0
171
     0
290
     0
174
     0
 93
        1
 44
0.0
173
     0
291
     0
 45
0.0
1001
ACAD
1000
AcDbSavedByObjectVersion
1070
     0
  0
VISUALSTYLE
  5
D47
102
{ACAD_REACTORS
330
D3F
102
}
330
D3F
100
AcDbVisualStyle
  2
3D Hidden
 70
     6
 71
     1
 72
     2
 73
     2
 90
        0
 40
-0.6
 41
-30.0
 62
     5
 63
     7
421
 16777215
 74
     2
 91
        2
 64
     7
 65
   257
 75
     2
175
     1
 42
40.0
 92
        0
 66
   257
 43
1.0
 76
     1
 77
     6
 78
     2
 67
     7
 79
     3
170
     0
171
     0
290
     0
174
     0
 93
        1
 44
0.0
173
     0
291
     0
 45
0.0
1001
ACAD
1000
AcDbSavedByObjectVersion
1070
     0
  0
VISUALSTYLE
  5
D46
102
{ACAD_REACTORS
330
D3F
102
}
330
D3F
100
AcDbVisualStyle
  2
3dWireframe
 70
     5
 71
     0
 72
     2
 73
     0
 90
        0
 40
-0.6
 41
-30.0
 62
     5
 63
     7
421
 16777215
 74
     1
 91
        4
 64
     7
 65
   257
 75
     1
175
     1
 42
1.0
 92
        0
 66
   257
 43
1.0
 76
     1
 77
     6
 78
     2
 67
     7
 79
     5
170
     0
171
     0
290
     0
174
     0
 93
        1
 44
0.0
173
     0
291
     0
 45
0.0
1001
ACAD
1000
AcDbSavedByObjectVersion
1070
     0
  0
VISUALSTYLE
  5
D44
102
{ACAD_REACTORS
330
D3F
102
}
330
D3F
100
AcDbVisualStyle
  2
Basic
 70
     7
 71
     1
 72
     0
 73
     1
 90
        0
 40
-0.6
 41
-30.0
 62
     5
 63
     7
421
 16777215
 74
     0
 91
        4
 64
     7
 65
   257
 75
     1
175
     1
 42
1.0
 92
        8
 66
     7
 43
1.0
 76
     1
 77
     6
 78
     2
 67
     7
 79
     5
170
     0
171
     0
290
     0
174
     0
 93
        1
 44
0.0
173
     0
291
     1
 45
0.0
1001
ACAD
1000
AcDbSavedByObjectVersion
1070
     0
  0
VISUALSTYLE
  5
D4B
102
{ACAD_REACTORS
330
D3F
102
}
330
D3F
100
AcDbVisualStyle
  2
Brighten
 70
    12
 71
     2
 72
     2
 73
     0
 90
        0
 40
-0.6
 41
-30.0
 62
     5
 63
     7
421
 16777215
 74
     1
 91
        4
 64
     7
 65
   257
 75
     1
175
     1
 42
1.0
 92
        8
 66
     7
 43
1.0
 76
     1
 77
     6
 78
     2
 67
     7
 79
     5
170
     0
171
     0
290
     0
174
     0
 93
        1
 44
50.0
173
     0
291
     1
 45
0.0
1001
ACAD
1000
AcDbSavedByObjectVersion
1070
     0
  0
VISUALSTYLE
  5
D4F
102
{ACAD_REACTORS
330
D3F
102
}
330
D3F
100
AcDbVisualStyle
  2
ColorChange
 70
    16
 71
     2
 72
     2
 73
     3
 90
        0
 40
-0.6
 41
-30.0
 62
     5
 63
     8
421
  8421504
 74
     1
 91
        4
 64
     7
 65
   257
 75
     1
175
     1
 42
1.0
 92
        8
 66
     8
424
  8421504
 43
1.0
 76
     1
 77
     6
 78
     2
 67
     7
 79
     5
170
     0
171
     0
290
     0
174
     0
 93
        1
 44
0.0
173
     0
291
     1
 45
0.0
1001
ACAD
1000
AcDbSavedByObjectVersion
1070
     0
  0
VISUALSTYLE
  5
D48
102
{ACAD_REACTORS
330
D3F
102
}
330
D3F
100
AcDbVisualStyle
  2
Conceptual
 70
     9
 71
     3
 72
     2
 73
     0
 90
        0
 40
-0.6
 41
-30.0
 62
     5
 63
     7
421
 16777215
 74
     2
 91
        2
 64
     7
 65
   257
 75
     1
175
     1
 42
40.0
 92
        8
 66
     7
 43
1.0
 76
     1
 77
     6
 78
     2
 67
     7
 79
     3
170
     0
171
     0
290
     0
174
     0
 93
        1
 44
0.0
173
     0
291
     0
 45
0.0
1001
ACAD
1000
AcDbSavedByObjectVersion
1070
     0
  0
VISUALSTYLE
  5
D4A
102
{ACAD_REACTORS
330
D3F
102
}
330
D3F
100
AcDbVisualStyle
  2
Dim
 70
    11
 71
     2
 72
     2
 73
     0
 90
        0
 40
-0.6
 41
-30.0
 62
     5
 63
     7
421
 16777215
 74
     1
 91
        4
 64
     7
 65
   257
 75
     1
175
     1
 42
1.0
 92
        8
 66
     7
 43
1.0
 76
     1
 77
     6
 78
     2
 67
     7
 79
     5
170
     0
171
     0
290
     0
174
     0
 93
        1
 44
-50.0
173
     0
291
     1
 45
0.0
1001
ACAD
1000
AcDbSavedByObjectVersion
1070
     0
  0
VISUALSTYLE
  5
D4E
102
{ACAD_REACTORS
330
D3F
102
}
330
D3F
100
AcDbVisualStyle
  2
Facepattern
 70
    15
 71
     2
 72
     2
 73
     0
 90
        0
 40
-0.6
 41
-30.0
 62
     5
 63
     7
421
 16777215
 74
     1
 91
        4
 64
     7
 65
   257
 75
     1
175
     1
 42
1.0
 92
        8
 66
     7
 43
1.0
 76
     1
 77
     6
 78
     2
 67
     7
 79
     5
170
     0
171
     0
290
     0
174
     0
 93
        1
 44
0.0
173
     0
291
     1
 45
0.0
1001
ACAD
1000
AcDbSavedByObjectVersion
1070
     0
  0
VISUALSTYLE
  5
D40
102
{ACAD_REACTORS
330
D3F
102
}
330
D3F
100
AcDbVisualStyle
  2
Flat
 70
     0
 71
     2
 72
     1
 73
     1
 90
        2
 40
-0.6
 41
30.0
 62
     5
 63
     7
421
 16777215
 74
     0
 91
        4
 64
     7
 65
   257
 75
     1
175
     1
 42
1.0
 92
        8
 66
     7
 43
1.0
 76
     1
 77
     6
 78
     2
 67
     7
 79
     5
170
     0
171
     0
290
     0
174
     0
 93
       13
 44
0.0
173
     0
291
     1
 45
0.0
1001
ACAD
1000
AcDbSavedByObjectVersion
1070
     0
  0
VISUALSTYLE
  5
D41
102
{ACAD_REACTORS
330
D3F
102
}
330
D3F
100
AcDbVisualStyle
  2
FlatWithEdges
 70
     1
 71
     2
 72
     1
 73
     1
 90
        2
 40
-0.6
 41
30.0
 62
     5
 63
     7
421
 16777215
 74
     1
 91
        4
 64
     7
 65
   257
 75
     1
175
     1
 42
1.0
 92
        0
 66
   257
 43
1.0
 76
     1
 77
     6
 78
     2
 67
     7
 79
     5
170
     0
171
     0
290
     0
174
     0
 93
       13
 44
0.0
173
     0
291
     1
 45
0.0
1001
ACAD
1000
AcDbSavedByObjectVersion
1070
     0
  0
VISUALSTYLE
  5
D42
102
{ACAD_REACTORS
330
D3F
102
}
330
D3F
100
AcDbVisualStyle
  2
Gouraud
 70
     2
 71
     2
 72
     2
 73
     1
 90
        2
 40
-0.6
 41
30.0
 62
     5
 63
     7
421
 16777215
 74
     0
 91
        4
 64
     7
 65
   257
 75
     1
175
     1
 42
1.0
 92
        0
 66
     7
 43
1.0
 76
     1
 77
     6
 78
     2
 67
     7
 79
     5
170
     0
171
     0
290
     0
174
     0
 93
       13
 44
0.0
173
     0
291
     1
 45
0.0
1001
ACAD
1000
AcDbSavedByObjectVersion
1070
     0
  0
VISUALSTYLE
  5
D43
102
{ACAD_REACTORS
330
D3F
102
}
330
D3F
100
AcDbVisualStyle
  2
GouraudWithEdges
 70
     3
 71
     2
 72
     2
 73
     1
 90
        2
 40
-0.6
 41
30.0
 62
     5
 63
     7
421
 16777215
 74
     1
 91
        4
 64
     7
 65
   257
 75
     1
175
     1
 42
1.0
 92
        0
 66
   257
 43
1.0
 76
     1
 77
     6
 78
     2
 67
     7
 79
     5
170
     0
171
     0
290
     0
174
     0
 93
       13
 44
0.0
173
     0
291
     1
 45
0.0
1001
ACAD
1000
AcDbSavedByObjectVersion
1070
     0
  0
VISUALSTYLE
  5
D4D
102
{ACAD_REACTORS
330
D3F
102
}
330
D3F
100
AcDbVisualStyle
  2
Linepattern
 70
    14
 71
     2
 72
     2
 73
     0
 90
        0
 40
-0.6
 41
-30.0
 62
     5
 63
     7
421
 16777215
 74
     1
 91
        4
 64
     7
 65
   257
 75
     7
175
     7
 42
1.0
 92
        8
 66
     7
 43
1.0
 76
     1
 77
     6
 78
     2
 67
     7
 79
     5
170
     0
171
     0
290
     0
174
     0
 93
        1
 44
0.0
173
     0
291
     1
 45
0.0
1001
ACAD
1000
AcDbSavedByObjectVersion
1070
     0
  0
VISUALSTYLE
  5
D49
102
{ACAD_REACTORS
330
D3F
102
}
330
D3F
100
AcDbVisualStyle
  2
Realistic
 70
     8
 71
     2
 72
     2
 73
     0
 90
        0
 40
-0.6
 41
-30.0
 62
     5
 63
     7
421
 16777215
 74
     1
 91
        0
 64
     7
 65
   257
 75
     1
175
     1
 42
1.0
 92
        8
 66
     8
424
  7895160
 43
1.0
 76
     1
 77
     6
 78
     2
 67
     7
 79
     5
170
     0
171
     0
290
     0
174
     0
 93
       13
 44
0.0
173
     0
291
     0
 45
0.0
1001
ACAD
1000
AcDbSavedByObjectVersion
1070
     0
  0
VISUALSTYLE
  5
D4C
102
{ACAD_REACTORS
330
D3F
102
}
330
D3F
100
AcDbVisualStyle
  2
Thicken
 70
    13
 71
     2
 72
     2
 73
     0
 90
        0
 40
-0.6
 41
-30.0
 62
     5
 63
     7
421
 16777215
 74
     1
 91
        4
 64
     7
 65
   257
 75
     1
175
     1
 42
1.0
 92
       12
 66
     7
 43
1.0
 76
     1
 77
     6
 78
     2
 67
     7
 79
     5
170
     0
171
     0
290
     0
174
     0
 93
        1
 44
0.0
173
     0
291
     1
 45
0.0
1001
ACAD
1000
AcDbSavedByObjectVersion
1070
     0
  0
DICTIONARYVAR
  5
F5E
102
{ACAD_REACTORS
330
107
102
}
330
107
100
DictionaryVariables
280
     0
  1
1:1
  0
DICTIONARYVAR
  5
F5D
102
{ACAD_REACTORS
330
107
102
}
330
107
100
DictionaryVariables
280
     0
  1
STANDARD
  0
DICTIONARYVAR
  5
F17
102
{ACAD_REACTORS
330
107
102
}
330
107
100
DictionaryVariables
280
     0
  1
STANDARD
  0
DICTIONARYVAR
  5
109
102
{ACAD_REACTORS
330
107
102
}
330
107
100
DictionaryVariables
280
     0
  1
2
  0
DICTIONARYVAR
  5
108
102
{ACAD_REACTORS
330
107
102
}
330
107
100
DictionaryVariables
280
     0
  1
1
  0
DICTIONARY
  5
DC2
102
{ACAD_REACTORS
330
DB7
102
}
330
DB7
100
AcDbDictionary
281
     1
  0
XRECORD
  5
DE1
102
{ACAD_REACTORS
330
DB7
102
}
330
DB7
100
AcDbXrecord
280
     1
 90
-1023410169
  0
DICTIONARY
  5
F65
330
D3D
100
AcDbDictionary
280
     1
281
     1
  3
ACAD_XREC_ROUNDTRIP
360
F66
  0
DICTIONARY
  5
F63
330
D3C
100
AcDbDictionary
280
     1
281
     1
  3
ACAD_XREC_ROUNDTRIP
360
F64
  0
DICTIONARY
  5
F67
330
D3E
100
AcDbDictionary
280
     1
281
     1
  3
ACAD_XREC_ROUNDTRIP
360
F68
  0
DICTIONARY
  5
F60
330
D52
100
AcDbDictionary
280
     1
281
     1
  3
ACAD_ROUNDTRIP_2008_TABLESTYLE_CELLSTYLEMAP
360
F61
  3
ACAD_XREC_ROUNDTRIP
360
F69
  0
XRECORD
  5
F66
102
{ACAD_REACTORS
330
F65
102
}
330
F65
100
AcDbXrecord
280
     1
102
MATERIAL
148
0.0
149
0.0
149
0.0
 93
        0
 94
       63
282
     0
 72
     1
 77
     1
171
     1
175
     1
179
     1
273
     0
  0
XRECORD
  5
F64
102
{ACAD_REACTORS
330
F63
102
}
330
F63
100
AcDbXrecord
280
     1
102
MATERIAL
148
0.0
149
0.0
149
0.0
 93
        0
 94
       63
282
     0
 72
     1
 77
     1
171
     1
175
     1
179
     1
273
     0
  0
XRECORD
  5
F68
102
{ACAD_REACTORS
330
F67
102
}
330
F67
100
AcDbXrecord
280
     1
102
MATERIAL
148
0.0
149
0.0
149
0.0
 93
        0
 94
       63
282
     0
 72
     1
 77
     1
171
     1
175
     1
179
     1
273
     0
  0
CELLSTYLEMAP
  5
F61
102
{ACAD_REACTORS
330
F60
102
}
330
F60
100
AcDbCellStyleMap
 90
        3
300
CELLSTYLE
  1
TABLEFORMAT_BEGIN
 90
        5
170
     1
 91
        0
 92
    32768
 62
   257
 93
        1
300
CONTENTFORMAT
  1
CONTENTFORMAT_BEGIN
 90
        0
 91
        0
 92
      512
 93
        0
300

 40
0.0
140
1.0
 94
        5
 62
     0
340
11
144
6.0
309
CONTENTFORMAT_END
171
     1
301
MARGIN
  1
CELLMARGIN_BEGIN
 40
1.5
 40
1.5
 40
1.5
 40
1.5
 40
0.18
 40
0.18
309
CELLMARGIN_END
 94
        6
 95
        1
302
GRIDFORMAT
  1
GRIDFORMAT_BEGIN
 90
        0
 91
        1
 62
     0
 92
       -2
340
0
 93
        0
 40
0.045
309
GRIDFORMAT_END
 95
        2
302
GRIDFORMAT
  1
GRIDFORMAT_BEGIN
 90
        0
 91
        1
 62
     0
 92
       -2
340
0
 93
        0
 40
0.045
309
GRIDFORMAT_END
 95
        4
302
GRIDFORMAT
  1
GRIDFORMAT_BEGIN
 90
        0
 91
        1
 62
     0
 92
       -2
340
0
 93
        0
 40
0.045
309
GRIDFORMAT_END
 95
        8
302
GRIDFORMAT
  1
GRIDFORMAT_BEGIN
 90
        0
 91
        1
 62
     0
 92
       -2
340
0
 93
        0
 40
0.045
309
GRIDFORMAT_END
 95
       16
302
GRIDFORMAT
  1
GRIDFORMAT_BEGIN
 90
        0
 91
        1
 62
     0
 92
       -2
340
0
 93
        0
 40
0.045
309
GRIDFORMAT_END
 95
       32
302
GRIDFORMAT
  1
GRIDFORMAT_BEGIN
 90
        0
 91
        1
 62
     0
 92
       -2
340
0
 93
        0
 40
0.045
309
GRIDFORMAT_END
309
TABLEFORMAT_END
  1
CELLSTYLE_BEGIN
 90
        1
 91
        1
300
_TITLE
309
CELLSTYLE_END
300
CELLSTYLE
  1
TABLEFORMAT_BEGIN
 90
        5
170
     1
 91
        0
 92
        0
 62
   257
 93
        1
300
CONTENTFORMAT
  1
CONTENTFORMAT_BEGIN
 90
        0
 91
        0
 92
      512
 93
        0
300

 40
0.0
140
1.0
 94
        5
 62
     0
340
11
144
4.5
309
CONTENTFORMAT_END
171
     1
301
MARGIN
  1
CELLMARGIN_BEGIN
 40
1.5
 40
1.5
 40
1.5
 40
1.5
 40
0.18
 40
0.18
309
CELLMARGIN_END
 94
        6
 95
        1
302
GRIDFORMAT
  1
GRIDFORMAT_BEGIN
 90
        0
 91
        1
 62
     0
 92
       -2
340
0
 93
        0
 40
0.045
309
GRIDFORMAT_END
 95
        2
302
GRIDFORMAT
  1
GRIDFORMAT_BEGIN
 90
        0
 91
        1
 62
     0
 92
       -2
340
0
 93
        0
 40
0.045
309
GRIDFORMAT_END
 95
        4
302
GRIDFORMAT
  1
GRIDFORMAT_BEGIN
 90
        0
 91
        1
 62
     0
 92
       -2
340
0
 93
        0
 40
0.045
309
GRIDFORMAT_END
 95
        8
302
GRIDFORMAT
  1
GRIDFORMAT_BEGIN
 90
        0
 91
        1
 62
     0
 92
       -2
340
0
 93
        0
 40
0.045
309
GRIDFORMAT_END
 95
       16
302
GRIDFORMAT
  1
GRIDFORMAT_BEGIN
 90
        0
 91
        1
 62
     0
 92
       -2
340
0
 93
        0
 40
0.045
309
GRIDFORMAT_END
 95
       32
302
GRIDFORMAT
  1
GRIDFORMAT_BEGIN
 90
        0
 91
        1
 62
     0
 92
       -2
340
0
 93
        0
 40
0.045
309
GRIDFORMAT_END
309
TABLEFORMAT_END
  1
CELLSTYLE_BEGIN
 90
        2
 91
        1
300
_HEADER
309
CELLSTYLE_END
300
CELLSTYLE
  1
TABLEFORMAT_BEGIN
 90
        5
170
     1
 91
        0
 92
        0
 62
   257
 93
        1
300
CONTENTFORMAT
  1
CONTENTFORMAT_BEGIN
 90
        0
 91
        0
 92
      512
 93
        0
300

 40
0.0
140
1.0
 94
        2
 62
     0
340
11
144
4.5
309
CONTENTFORMAT_END
171
     1
301
MARGIN
  1
CELLMARGIN_BEGIN
 40
1.5
 40
1.5
 40
1.5
 40
1.5
 40
0.18
 40
0.18
309
CELLMARGIN_END
 94
        6
 95
        1
302
GRIDFORMAT
  1
GRIDFORMAT_BEGIN
 90
        0
 91
        1
 62
     0
 92
       -2
340
0
 93
        0
 40
0.045
309
GRIDFORMAT_END
 95
        2
302
GRIDFORMAT
  1
GRIDFORMAT_BEGIN
 90
        0
 91
        1
 62
     0
 92
       -2
340
0
 93
        0
 40
0.045
309
GRIDFORMAT_END
 95
        4
302
GRIDFORMAT
  1
GRIDFORMAT_BEGIN
 90
        0
 91
        1
 62
     0
 92
       -2
340
0
 93
        0
 40
0.045
309
GRIDFORMAT_END
 95
        8
302
GRIDFORMAT
  1
GRIDFORMAT_BEGIN
 90
        0
 91
        1
 62
     0
 92
       -2
340
0
 93
        0
 40
0.045
309
GRIDFORMAT_END
 95
       16
302
GRIDFORMAT
  1
GRIDFORMAT_BEGIN
 90
        0
 91
        1
 62
     0
 92
       -2
340
0
 93
        0
 40
0.045
309
GRIDFORMAT_END
 95
       32
302
GRIDFORMAT
  1
GRIDFORMAT_BEGIN
 90
        0
 91
        1
 62
     0
 92
       -2
340
0
 93
        0
 40
0.045
309
GRIDFORMAT_END
309
TABLEFORMAT_END
  1
CELLSTYLE_BEGIN
 90
        3
 91
        2
300
_DATA
309
CELLSTYLE_END
  0
XRECORD
  5
F69
102
{ACAD_REACTORS
330
F60
102
}
330
F60
100
AcDbXrecord
280
     1
102
ACAD_ROUNDTRIP_PRE2007_TABLESTYLE
 90
      512
 91
        0
  1

 92
      512
 93
        0
  2

 94
      512
 95
        0
  3

  0
ENDSEC
  0
EOF
