  0
SECTION
  2
HEADER
  9
$ACADVER
  1
AC1018
  9
$ACADMAINTVER
 70
   104
  9
$DWGCODEPAGE
  3
ANSI_1252
  9
$LASTSAVEDBY
  1
User
  9
$INSBASE
 10
0.0
 20
0.0
 30
0.0
  9
$EXTMIN
 10
-23.34711174549136
 20
-12.00000000000001
 30
0.0
  9
$EXTMAX
 10
202.4725595022089
 20
102.9235460138546
 30
0.0
  9
$LIMMIN
 10
0.0
 20
0.0
  9
$LIMMAX
 10
420.0
 20
297.0
  9
$ORTHOMODE
 70
     0
  9
$REGENMODE
 70
     1
  9
$FILLMODE
 70
     1
  9
$QTEXTMODE
 70
     0
  9
$MIRRTEXT
 70
     1
  9
$LTSCALE
 40
1.0
  9
$ATTMODE
 70
     1
  9
$TEXTSIZE
 40
2.5
  9
$TRACEWID
 40
1.0
  9
$TEXTSTYLE
  7
Standard
  9
$CLAYER
  8
0
  9
$CELTYPE
  6
ByLayer
  9
$CECOLOR
 62
   256
  9
$CELTSCALE
 40
1.0
  9
$DISPSILH
 70
     1
  9
$DIMSCALE
 40
1.0
  9
$DIMASZ
 40
2.5
  9
$DIMEXO
 40
0.625
  9
$DIMDLI
 40
3.75
  9
$DIMRND
 40
0.0
  9
$DIMDLE
 40
0.0
  9
$DIMEXE
 40
1.25
  9
$DIMTP
 40
0.0
  9
$DIMTM
 40
0.0
  9
$DIMTXT
 40
2.5
  9
$DIMCEN
 40
2.5
  9
$DIMTSZ
 40
0.0
  9
$DIMTOL
 70
     0
  9
$DIMLIM
 70
     0
  9
$DIMTIH
 70
     0
  9
$DIMTOH
 70
     0
  9
$DIMSE1
 70
     0
  9
$DIMSE2
 70
     0
  9
$DIMTAD
 70
     1
  9
$DIMZIN
 70
     8
  9
$DIMBLK
  1

  9
$DIMASO
 70
     1
  9
$DIMSHO
 70
     1
  9
$DIMPOST
  1

  9
$DIMAPOST
  1

  9
$DIMALT
 70
     0
  9
$DIMALTD
 70
     3
  9
$DIMALTF
 40
0.03937007874016
  9
$DIMLFAC
 40
1.0
  9
$DIMTOFL
 70
     1
  9
$DIMTVP
 40
0.0
  9
$DIMTIX
 70
     0
  9
$DIMSOXD
 70
     0
  9
$DIMSAH
 70
     0
  9
$DIMBLK1
  1

  9
$DIMBLK2
  1

  9
$DIMSTYLE
  2
ISO-25
  9
$DIMCLRD
 70
     0
  9
$DIMCLRE
 70
     0
  9
$DIMCLRT
 70
     0
  9
$DIMTFAC
 40
1.0
  9
$DIMGAP
 40
0.625
  9
$DIMJUST
 70
     0
  9
$DIMSD1
 70
     0
  9
$DIMSD2
 70
     0
  9
$DIMTOLJ
 70
     0
  9
$DIMTZIN
 70
     8
  9
$DIMALTZ
 70
     0
  9
$DIMALTTZ
 70
     0
  9
$DIMUPT
 70
     0
  9
$DIMDEC
 70
     4
  9
$DIMTDEC
 70
     4
  9
$DIMALTU
 70
     2
  9
$DIMALTTD
 70
     3
  9
$DIMTXSTY
  7
Standard
  9
$DIMAUNIT
 70
     0
  9
$DIMADEC
 70
     2
  9
$DIMALTRND
 40
0.0
  9
$DIMAZIN
 70
     0
  9
$DIMDSEP
 70
    44
  9
$DIMATFIT
 70
     3
  9
$DIMFRAC
 70
     2
  9
$DIMLDRBLK
  1

  9
$DIMLUNIT
 70
     2
  9
$DIMLWD
 70
    -2
  9
$DIMLWE
 70
    -2
  9
$DIMTMOVE
 70
     0
  9
$LUNITS
 70
     2
  9
$LUPREC
 70
     4
  9
$SKETCHINC
 40
1.0
  9
$FILLETRAD
 40
10.0
  9
$AUNITS
 70
     0
  9
$AUPREC
 70
     2
  9
$MENU
  1
.
  9
$ELEVATION
 40
0.0
  9
$PELEVATION
 40
0.0
  9
$THICKNESS
 40
0.0
  9
$LIMCHECK
 70
     0
  9
$CHAMFERA
 40
10.0
  9
$CHAMFERB
 40
10.0
  9
$CHAMFERC
 40
20.0
  9
$CHAMFERD
 40
0.0
  9
$SKPOLY
 70
     0
  9
$TDCREATE
 40
2453556.522751366
  9
$TDUCREATE
 40
2453556.189418033
  9
$TDUPDATE
 40
2454313.748200590
  9
$TDUUPDATE
 40
2454313.414867257
  9
$TDINDWG
 40
0.0228347569
  9
$TDUSRTIMER
 40
0.0228336806
  9
$USRTIMER
 70
     1
  9
$ANGBASE
 50
0.0
  9
$ANGDIR
 70
     0
  9
$PDMODE
 70
     0
  9
$PDSIZE
 40
0.0
  9
$PLINEWID
 40
0.0
  9
$SPLFRAME
 70
     0
  9
$SPLINETYPE
 70
     6
  9
$SPLINESEGS
 70
 20000
  9
$HANDSEED
  5
453
  9
$SURFTAB1
 70
     6
  9
$SURFTAB2
 70
     6
  9
$SURFTYPE
 70
     6
  9
$SURFU
 70
     6
  9
$SURFV
 70
     6
  9
$UCSBASE
  2

  9
$UCSNAME
  2

  9
$UCSORG
 10
0.0
 20
0.0
 30
0.0
  9
$UCSXDIR
 10
1.0
 20
0.0
 30
0.0
  9
$UCSYDIR
 10
0.0
 20
1.0
 30
0.0
  9
$UCSORTHOREF
  2

  9
$UCSORTHOVIEW
 70
     1
  9
$UCSORGTOP
 10
0.0
 20
0.0
 30
0.0
  9
$UCSORGBOTTOM
 10
0.0
 20
0.0
 30
0.0
  9
$UCSORGLEFT
 10
0.0
 20
0.0
 30
0.0
  9
$UCSORGRIGHT
 10
0.0
 20
0.0
 30
0.0
  9
$UCSORGFRONT
 10
0.0
 20
0.0
 30
0.0
  9
$UCSORGBACK
 10
0.0
 20
0.0
 30
0.0
  9
$PUCSBASE
  2

  9
$PUCSNAME
  2

  9
$PUCSORG
 10
0.0
 20
0.0
 30
0.0
  9
$PUCSXDIR
 10
1.0
 20
0.0
 30
0.0
  9
$PUCSYDIR
 10
0.0
 20
1.0
 30
0.0
  9
$PUCSORTHOREF
  2

  9
$PUCSORTHOVIEW
 70
     0
  9
$PUCSORGTOP
 10
0.0
 20
0.0
 30
0.0
  9
$PUCSORGBOTTOM
 10
0.0
 20
0.0
 30
0.0
  9
$PUCSORGLEFT
 10
0.0
 20
0.0
 30
0.0
  9
$PUCSORGRIGHT
 10
0.0
 20
0.0
 30
0.0
  9
$PUCSORGFRONT
 10
0.0
 20
0.0
 30
0.0
  9
$PUCSORGBACK
 10
0.0
 20
0.0
 30
0.0
  9
$USERI1
 70
     0
  9
$USERI2
 70
     0
  9
$USERI3
 70
     0
  9
$USERI4
 70
     0
  9
$USERI5
 70
     0
  9
$USERR1
 40
0.0
  9
$USERR2
 40
0.0
  9
$USERR3
 40
0.0
  9
$USERR4
 40
0.0
  9
$USERR5
 40
0.0
  9
$WORLDVIEW
 70
     1
  9
$SHADEDGE
 70
     3
  9
$SHADEDIF
 70
    70
  9
$TILEMODE
 70
     1
  9
$MAXACTVP
 70
    64
  9
$PINSBASE
 10
0.0
 20
0.0
 30
0.0
  9
$PLIMCHECK
 70
     0
  9
$PEXTMIN
 10
0.0
 20
0.0
 30
0.0
  9
$PEXTMAX
 10
0.0
 20
0.0
 30
0.0
  9
$PLIMMIN
 10
0.0
 20
0.0
  9
$PLIMMAX
 10
12.0
 20
9.0
  9
$UNITMODE
 70
     0
  9
$VISRETAIN
 70
     1
  9
$PLINEGEN
 70
     0
  9
$PSLTSCALE
 70
     1
  9
$TREEDEPTH
 70
  3020
  9
$CMLSTYLE
  2
Standard
  9
$CMLJUST
 70
     0
  9
$CMLSCALE
 40
20.0
  9
$PROXYGRAPHICS
 70
     1
  9
$MEASUREMENT
 70
     1
  9
$CELWEIGHT
370
    -1
  9
$ENDCAPS
280
     0
  9
$JOINSTYLE
280
     0
  9
$LWDISPLAY
290
     0
  9
$INSUNITS
 70
     4
  9
$HYPERLINKBASE
  1

  9
$STYLESHEET
  1

  9
$XEDIT
290
     1
  9
$CEPSNTYPE
380
     0
  9
$PSTYLEMODE
290
     1
  9
$FINGERPRINTGUID
  2
{FDEAD578-A652-11D2-9A35-0060089B3A3F}
  9
$VERSIONGUID
  2
{B0A8B5D4-0D59-4DAA-B591-6E88C10E7E70}
  9
$EXTNAMES
290
     1
  9
$PSVPSCALE
 40
0.0
  9
$OLESTARTUP
290
     0
  9
$SORTENTS
280
   127
  9
$INDEXCTL
280
     0
  9
$HIDETEXT
280
     1
  9
$XCLIPFRAME
290
     0
  9
$HALOGAP
280
     0
  9
$OBSCOLOR
 70
   257
  9
$OBSLTYPE
280
     0
  9
$INTERSECTIONDISPLAY
280
     0
  9
$INTERSECTIONCOLOR
 70
   257
  9
$DIMASSOC
280
     2
  9
$PROJECTNAME
  1

  0
ENDSEC
  0
SECTION
  2
CLASSES
  0
CLASS
  1
ACDBDICTIONARYWDFLT
  2
AcDbDictionaryWithDefault
  3
ObjectDBX Classes
 90
        0
 91
        1
280
     0
281
     0
  0
CLASS
  1
DICTIONARYVAR
  2
AcDbDictionaryVar
  3
ObjectDBX Classes
 90
        0
 91
        5
280
     0
281
     0
  0
CLASS
  1
DIMASSOC
  2
AcDbDimAssoc
  3
"AcDbDimAssoc|Product Desc:     AcDim ARX App For Dimension|Company:          Autodesk, Inc.|WEB Address:      www.autodesk.com"
 90
        0
 91
        3
280
     0
281
     0
  0
CLASS
  1
MATERIAL
  2
AcDbMaterial
  3
ObjectDBX Classes
 90
     1153
 91
        3
280
     0
281
     0
  0
CLASS
  1
VISUALSTYLE
  2
AcDbVisualStyle
  3
ObjectDBX Classes
 90
     4095
 91
       19
280
     0
281
     0
  0
CLASS
  1
TABLESTYLE
  2
AcDbTableStyle
  3
ObjectDBX Classes
 90
     4095
 91
        1
280
     0
281
     0
  0
CLASS
  1
SCALE
  2
AcDbScale
  3
ObjectDBX Classes
 90
     1153
 91
       33
280
     0
281
     0
  0
CLASS
  1
MLEADERSTYLE
  2
AcDbMLeaderStyle
  3
ACDB_MLEADERSTYLE_CLASS
 90
     4095
 91
        1
280
     0
281
     0
  0
CLASS
  1
SOLID_BACKGROUND
  2
AcDbSolidBackground
  3
SCENEOE
 90
     4095
 91
        1
280
     0
281
     0
  0
CLASS
  1
NPOCOLLECTION
  2
AcDbImpNonPersistentObjectsCollection
  3
ObjectDBX Classes
 90
     1153
 91
        1
280
     0
281
     0
  0
CLASS
  1
ACME_DOCUMENT
  2
AcMeDbDoc
  3
AcMeServices
 90
     1024
 91
        2
280
     0
281
     0
  0
CLASS
  1
AMGSETTINGSOBJ
  2
AmgSettingsObj
  3
"AcadM|Product Description: AutoCAD Mechanical|Company: Autodesk, Inc."
 90
     1024
 91
        2
280
     0
281
     0
  0
CLASS
  1
ACMESCOPE
  2
AcMeScope
  3
AcMeServices
 90
     1024
 91
        1
280
     0
281
     0
  0
CLASS
  1
ACMECOMMANDHISTORY
  2
AcMeCommandHistory
  3
AcMeServices
 90
     1024
 91
        1
280
     0
281
     0
  0
CLASS
  1
ACIMSYSVARMAN
  2
AcImSysVarManager
  3
AcMeServices
 90
     1024
 91
        5
280
     0
281
     0
  0
CLASS
  1
ACIMINTSYSVAR
  2
AcImIntSysVar
  3
AcMeServices
 90
     1024
 91
       27
280
     0
281
     0
  0
CLASS
  1
ACMEDRAWINGMAN
  2
AcMeDrawingMan
  3
AcMeServices
 90
     1024
 91
        1
280
     0
281
     0
  0
CLASS
  1
ACMEVIEW
  2
AcMeView
  3
AcMeServices
 90
     1024
 91
        1
280
     0
281
     0
  0
CLASS
  1
ACDBENTITYCACHE
  2
AcMeEntityCache
  3
AcMeServices
 90
     1024
 91
        1
280
     0
281
     0
  0
CLASS
  1
GSMANAGER
  2
AcMeGSManager
  3
AcMeServices
 90
     1024
 91
        1
280
     0
281
     0
  0
CLASS
  1
AMDTINTERNALREACTOR
  2
AmdtInternalReactor
  3
AcMeServices
 90
     1024
 91
        2
280
     0
281
     0
  0
CLASS
  1
ACMESTATEMGR
  2
AcMeStateMgr
  3
AcMeServices
 90
     1024
 91
        1
280
     0
281
     0
  0
CLASS
  1
ACGREFMASTER
  2
AcGrefMaster
  3
AcAttribServices
 90
     1024
 91
        1
280
     0
281
     0
  0
CLASS
  1
AM_DRAWING_MGR
  2
AcDmDwgMgr
  3
AcMechDwgViewMgmt
 90
     1024
 91
        1
280
     0
281
     0
  0
CLASS
  1
AM_DWG_DOCUMENT
  2
AcDmDwgDocument
  3
AcMechDwgViewMgmt
 90
     1024
 91
        1
280
     0
281
     0
  0
CLASS
  1
AM_DWG_SHEET
  2
AcDmSheet
  3
AcMechDwgViewMgmt
 90
     1024
 91
        2
280
     0
281
     0
  0
CLASS
  1
AM_VIEWDIMPARMAP
  2
AcDmViewDimParMap
  3
AcMechDwgViewMgmt
 90
     1024
 91
        2
280
     0
281
     0
  0
CLASS
  1
ACIMREALSYSVAR
  2
AcImRealSysVar
  3
AcMeServices
 90
     1024
 91
        1
280
     0
281
     0
  0
CLASS
  1
AM_DWGMGR_NAME
  2
AcDmDwgMgrName
  3
AcMechDwgViewMgmt
 90
     1024
 91
        1
280
     0
281
     0
  0
CLASS
  1
ACME_DATABASE
  2
AcMeDbDatabase
  3
AcMeServices
 90
     1024
 91
        1
280
     0
281
     0
  0
CLASS
  1
ACRFINSADJUSTERMGR
  2
AcRfInsAdjusterMgr
  3
AcMeServices
 90
     1024
 91
        1
280
     0
281
     0
  0
CLASS
  1
ACGREFACADMASTER
  2
AcGrefacadMaster
  3
AcGrefServices
 90
     1024
 91
        1
280
     0
281
     0
  0
CLASS
  1
AMDTMENUSTATEMGR
  2
AmdtMenuStateMgr
  3
McadcomServices
 90
     1024
 91
        1
280
     0
281
     0
  0
CLASS
  1
AMDTMCOMMENUSTATE
  2
AmdtMcomMenuState
  3
McadcomServices
 90
     1024
 91
        1
280
     0
281
     0
  0
CLASS
  1
AMIMASTER
  2
AmiMaster
  3
AmiServices
 90
     1024
 91
        1
280
     0
281
     0
  0
CLASS
  1
MAPIAMMOUDLE
  2
MApiAmModule
  3
MApiAmServices
 90
     1024
 91
        1
280
     0
281
     0
  0
CLASS
  1
ACIMSTRSYSVAR
  2
AcImStrSysVar
  3
AcMeServices
 90
     1024
 91
        5
280
     0
281
     0
  0
CLASS
  1
AMDTADMENUSTATE
  2
AmdtAdMenuState
  3
DesignerServices
 90
     1024
 91
        1
280
     0
281
     0
  0
CLASS
  1
ADAPPL
  2
AcAdAppl
  3
DesignerServices
 90
     1024
 91
        1
280
     0
281
     0
  0
CLASS
  1
DEPMGR
  2
AcAdDepMgr
  3
DesignerServices
 90
     1024
 91
        1
280
     0
281
     0
  0
CLASS
  1
PARAMMGR
  2
AcAdParamMgr
  3
DesignerServices
 90
     1024
 91
        1
280
     0
281
     0
  0
CLASS
  1
PARAMSCOPE
  2
AcAdParamScope
  3
DesignerServices
 90
     1024
 91
        1
280
     0
281
     0
  0
CLASS
  1
NAMEDAPPL
  2
AcAdNamedAppl
  3
DesignerServices
 90
     1024
 91
        1
280
     0
281
     0
  0
CLASS
  1
AMDTDMMENUSTATE
  2
AmdtDmMenuState
  3
AcMechDwgViewMgmt
 90
     1024
 91
        1
280
     0
281
     0
  0
CLASS
  1
AMDTAMMENUSTATE
  2
AmdtAmMenuState
  3
DesignerAssemblies
 90
     1024
 91
        1
280
     0
281
     0
  0
CLASS
  1
ACAMPROJECT
  2
AcAmProject
  3
DesignerAssemblies
 90
     1024
 91
        1
280
     0
281
     0
  0
CLASS
  1
ACAMGRCOMPDEF
  2
AcAmGrCompDef
  3
DesignerAssemblies
 90
     1024
 91
        1
280
     0
281
     0
  0
CLASS
  1
ACCMCONTEXT
  2
AcCmContext
  3
DesignerAssemblies
 90
     1024
 91
        1
280
     0
281
     0
  0
CLASS
  1
ACAMCOMPDEF
  2
AcAmCompDef
  3
DesignerAssemblies
 90
     1024
 91
        1
280
     0
281
     0
  0
CLASS
  1
ACAMCOMPDEFMGR
  2
AcAmCompDefMgr
  3
DesignerAssemblies
 90
     1024
 91
        1
280
     0
281
     0
  0
CLASS
  1
AMCONTEXTMGR
  2
AcAmContextMgr
  3
DesignerAssemblies
 90
     1024
 91
        1
280
     0
281
     0
  0
CLASS
  1
ACAMCONTEXTMODELER
  2
AcAmContextModeler
  3
DesignerAssemblies
 90
     1024
 91
        1
280
     0
281
     0
  0
CLASS
  1
ACMDATADICTIONARY
  2
AcmDataDictionary
  3
"AcmSymBB|Product Description: AutoCAD Mechanical|Company: Autodesk, Inc."
 90
     1024
 91
        1
280
     0
281
     0
  0
CLASS
  1
CATALOGSTATE
  2
AcAmCatalogState
  3
DesignerAssemblies
 90
     1024
 91
        1
280
     0
281
     0
  0
CLASS
  1
ACAMGRCOMPDEFSET
  2
AcAmGrCompDefSet
  3
DesignerAssemblies
 90
     1024
 91
        1
280
     0
281
     0
  0
CLASS
  1
AMDTBROWSERDBTAB
  2
AmdtBrowserDbTab
  3
McadcomServices
 90
     1024
 91
        1
280
     0
281
     0
  0
CLASS
  1
CBROWSERAPPOBJECT
  2
CBrowserAppObject
  3
McadcomServices
 90
     1024
 91
        3
280
     0
281
     0
  0
CLASS
  1
DM_PLACEHOLDER
  2
AcDmSelsetPlaceholder
  3
AcMechDwgViewMgmt
 90
     1024
 91
        1
280
     0
281
     0
  0
CLASS
  1
ACMSTANDARDISO
  2
AcmStandardISO
  3
"Amdt_StdImp|Product Description: AutoCAD Mechanical|Company: Autodesk, Inc."
 90
     1024
 91
        1
280
     0
281
     0
  0
CLASS
  1
AMGOBJPROPCFG
  2
AmgObjPropCfg
  3
"AmgLay|Product Description: AutoCAD Mechanical|Company: Autodesk, Inc."
 90
     1025
 91
        1
280
     0
281
     0
  0
CLASS
  1
AMDTEDGESTANDARDISO13715
  2
AmdtEdgeStdISO13715
  3
"Amdt_StdImp|Product Description: AutoCAD Mechanical|Company: Autodesk, Inc."
 90
     1024
 91
        1
280
     0
281
     0
  0
CLASS
  1
ACMSURFSTANDARDISO2002
  2
AcmSurfTextStdISO2002
  3
"Amdt_StdImp|Product Description: AutoCAD Mechanical|Company: Autodesk, Inc."
 90
     1024
 91
        1
280
     0
281
     0
  0
CLASS
  1
ACMFCFSTANDARDISO
  2
AcmFCFStdISO
  3
"Amdt_StdImp|Product Description: AutoCAD Mechanical|Company: Autodesk, Inc."
 90
     1024
 91
        1
280
     0
281
     0
  0
CLASS
  1
ACMWELDSTANDARDISO
  2
AcmWeldingStdISO
  3
"Amdt_StdImp|Product Description: AutoCAD Mechanical|Company: Autodesk, Inc."
 90
     1024
 91
        1
280
     0
281
     0
  0
CLASS
  1
ACMIDSTANDARDISO
  2
AcmIdStdISO
  3
"Amdt_StdImp|Product Description: AutoCAD Mechanical|Company: Autodesk, Inc."
 90
     1024
 91
        1
280
     0
281
     0
  0
CLASS
  1
ACMDATUMSTANDARDISO
  2
AcmDatumStdISO
  3
"Amdt_StdImp|Product Description: AutoCAD Mechanical|Company: Autodesk, Inc."
 90
     1024
 91
        1
280
     0
281
     0
  0
CLASS
  1
ACMBOMSTANDARDISO
  2
AcmBOMStdISO
  3
"Amdt_StdImp|Product Description: AutoCAD Mechanical|Company: Autodesk, Inc."
 90
     1024
 91
        1
280
     0
281
     0
  0
CLASS
  1
ACMDETAILSTANDARDISO
  2
AmdtDetailSymStdISO
  3
"Amdt_StdImp|Product Description: AutoCAD Mechanical|Company: Autodesk, Inc."
 90
     1024
 91
        1
280
     0
281
     0
  0
CLASS
  1
ACMSECTIONSTANDARDISO2001
  2
AmdtSectionSymStdISO2001
  3
"Amdt_StdImp|Product Description: AutoCAD Mechanical|Company: Autodesk, Inc."
 90
     1024
 91
        1
280
     0
281
     0
  0
CLASS
  1
ACMCENTERLINESTANDARDISO
  2
AmdtCenterLineStdISO
  3
"Amdt_StdImp|Product Description: AutoCAD Mechanical|Company: Autodesk, Inc."
 90
     1024
 91
        1
280
     0
281
     0
  0
CLASS
  1
ACMTHREADLINESTANDARDISO
  2
AmdtThreadLineStdISO
  3
"Amdt_StdImp|Product Description: AutoCAD Mechanical|Company: Autodesk, Inc."
 90
     1024
 91
        1
280
     0
281
     0
  0
CLASS
  1
ACMNOTESTANDARDISO
  2
AmdtNoteStdISO
  3
"Amdt_StdImp|Product Description: AutoCAD Mechanical|Company: Autodesk, Inc."
 90
     1024
 91
        1
280
     0
281
     0
  0
CLASS
  1
ACMTAPERSTANDARDISO
  2
AcmTaperStdISO
  3
"Amdt_StdImp|Product Description: AutoCAD Mechanical|Company: Autodesk, Inc."
 90
     1024
 91
        1
280
     0
281
     0
  0
CLASS
  1
ACMANOOTATIONVIEWSTANDARDISO
  2
AmdtAnViewStdISO
  3
"Amdt_StdImp|Product Description: AutoCAD Mechanical|Company: Autodesk, Inc."
 90
     1024
 91
        1
280
     0
281
     0
  0
CLASS
  1
AMDTNOTETEMPLATEDB
  2
AmdtNoteTemplateDB
  3
AcmSymBB|Product Description: AutoCAD Mechanical|Company: Autodesk, Inc.
 90
     1024
 91
        6
280
     0
281
     0
  0
CLASS
  1
ACAMGLAYSTD
  2
AcAmgLayStd
  3
"AmgLay|Product Description: AutoCAD Mechanical|Company: Autodesk, Inc."
 90
     1024
 91
        1
280
     0
281
     0
  0
CLASS
  1
ACAMGDIMSTD
  2
AcAmgDimStd
  3
"AmgDim|Product Description: AutoCAD Mechanical|Company: Autodesk, Inc."
 90
     1024
 91
        1
280
     0
281
     0
  0
CLASS
  1
ACAMGHOLECHARTSTDISO
  2
AcAmgHoleChartStdISO
  3
AmgDim|Product Description: AutoCAD Mechanical|Company: Autodesk, Inc.
 90
     1024
 91
        1
280
     0
281
     0
  0
CLASS
  1
ACAMGTITLESTD
  2
AcAmgTitleStd
  3
"AmgTitle|Product Description: AutoCAD Mechanical|Company: Autodesk, Inc."
 90
     4095
 91
        1
280
     0
281
     0
  0
CLASS
  1
ACAMGFILTERDAT
  2
AcAmgFilterDat
  3
"AcadM|Product Description: AutoCAD Mechanical|Company: Autodesk, Inc."
 90
     1024
 91
        6
280
     0
281
     0
  0
CLASS
  1
CELLSTYLEMAP
  2
AcDbCellStyleMap
  3
ObjectDBX Classes
 90
     1152
 91
        1
280
     0
281
     0
  0
ENDSEC
  0
SECTION
  2
TABLES
  0
TABLE
  2
VPORT
  5
8
330
0
100
AcDbSymbolTable
 70
     1
  0
VPORT
  5
34D
330
8
100
AcDbSymbolTableRecord
100
AcDbViewportTableRecord
  2
*Active
 70
     0
 10
0.0
 20
0.0
 11
1.0
 21
1.0
 12
89.56272387835875
 22
48.90646366287733
 13
0.0
 23
0.0
 14
10.0
 24
10.0
 15
10.0
 25
10.0
 16
0.0
 26
0.0
 36
1.0
 17
0.0
 27
0.0
 37
0.0
 40
151.6199159416892
 41
1.499364675984752
 42
50.0
 43
0.0
 44
0.0
 50
0.0
 51
0.0
 71
     0
 72
 20000
 73
     1
 74
     3
 75
     0
 76
     0
 77
     0
 78
     0
281
     1
 65
     1
110
0.0
120
0.0
130
0.0
111
1.0
121
0.0
131
0.0
112
0.0
122
1.0
132
0.0
 79
     0
146
0.0
  0
ENDTAB
  0
TABLE
  2
LTYPE
  5
5
330
0
100
AcDbSymbolTable
 70
     7
  0
LTYPE
  5
14
330
5
100
AcDbSymbolTableRecord
100
AcDbLinetypeTableRecord
  2
ByBlock
 70
     0
  3

 72
    65
 73
     0
 40
0.0
  0
LTYPE
  5
15
330
5
100
AcDbSymbolTableRecord
100
AcDbLinetypeTableRecord
  2
ByLayer
 70
     0
  3

 72
    65
 73
     0
 40
0.0
  0
LTYPE
  5
16
330
5
100
AcDbSymbolTableRecord
100
AcDbLinetypeTableRecord
  2
Continuous
 70
     0
  3
Solid line
 72
    65
 73
     0
 40
0.0
  0
LTYPE
  5
3DC
330
5
100
AcDbSymbolTableRecord
100
AcDbLinetypeTableRecord
  2
HIDDEN
 70
     0
  3
Hidden __ __ __ __ __ __ __ __ __ __ __ __ __ _
 72
    65
 73
     2
 40
9.524999999999998
 49
6.349999999999999
 74
     0
 49
-3.174999999999999
 74
     0
  0
LTYPE
  5
3DD
330
5
100
AcDbSymbolTableRecord
100
AcDbLinetypeTableRecord
  2
PHANTOM2
 70
     0
  3
Phantom (.5x) ___ _ _ ___ _ _ ___ _ _ ___ _ _
 72
    65
 73
     6
 40
31.75
 49
15.875
 74
     0
 49
-3.174999999999999
 74
     0
 49
3.174999999999999
 74
     0
 49
-3.174999999999999
 74
     0
 49
3.174999999999999
 74
     0
 49
-3.174999999999999
 74
     0
  0
LTYPE
  5
3DE
330
5
100
AcDbSymbolTableRecord
100
AcDbLinetypeTableRecord
  2
CENTER
 70
     0
  3
Center ____ _ ____ _ ____ _ ____ _ ____ _ ____
 72
    65
 73
     4
 40
50.8
 49
31.75
 74
     0
 49
-6.349999999999999
 74
     0
 49
6.349999999999999
 74
     0
 49
-6.349999999999999
 74
     0
  0
LTYPE
  5
423
330
5
100
AcDbSymbolTableRecord
100
AcDbLinetypeTableRecord
  2
ACISOWELD
 70
     0
  3
_ _ _ _ _
 72
    65
 73
     2
 40
2.0
 49
2.0
 74
     0
 49
-1.0
 74
     0
  0
LTYPE
  5
424
330
5
100
AcDbSymbolTableRecord
100
AcDbLinetypeTableRecord
  2
ACISOTGB
 70
     0
  3
__ . . __ . .
 72
    65
 73
     6
 40
9.0
 49
4.0
 74
     0
 49
-1.0
 74
     0
 49
1.0
 74
     0
 49
-1.0
 74
     0
 49
1.0
 74
     0
 49
-1.0
 74
     0
  0
LTYPE
  5
425
330
5
100
AcDbSymbolTableRecord
100
AcDbLinetypeTableRecord
  2
ACISOTGL
 70
     0
  3
_ _ _ _ _
 72
    65
 73
     2
 40
3.0
 49
2.0
 74
     0
 49
-1.0
 74
     0
  0
ENDTAB
  0
TABLE
  2
LAYER
  5
2
330
0
100
AcDbSymbolTable
 70
     2
  0
LAYER
  5
10
102
{ACAD_XDICTIONARY
360
445
102
}
330
2
100
AcDbSymbolTableRecord
100
AcDbLayerTableRecord
  2
0
 70
     0
 62
     7
  6
Continuous
370
    -3
390
F
  0
LAYER
  5
76
330
2
100
AcDbSymbolTableRecord
100
AcDbLayerTableRecord
  2
Defpoints
 70
     0
 62
     7
  6
Continuous
290
     0
370
    -3
390
F
  0
ENDTAB
  0
TABLE
  2
STYLE
  5
3
330
0
100
AcDbSymbolTable
 70
     3
  0
STYLE
  5
11
330
3
100
AcDbSymbolTableRecord
100
AcDbTextStyleTableRecord
  2
Standard
 70
     0
 40
0.0
 41
1.0
 50
0.0
 71
     0
 42
2.5
  3
txt
  4

  0
STYLE
  5
413
330
3
100
AcDbSymbolTableRecord
100
AcDbTextStyleTableRecord
  2
ACISOTS
 70
     0
 40
1.0
 41
1.0
 50
0.0
 71
     0
 42
2.5
  3
isocp.shx
  4

  0
STYLE
  5
422
330
3
100
AcDbSymbolTableRecord
100
AcDbTextStyleTableRecord
  2
ACISOGDT
 70
     0
 40
0.0
 41
1.0
 50
0.0
 71
     0
 42
2.5
  3
amgdt.shx
  4

  0
ENDTAB
  0
TABLE
  2
VIEW
  5
6
330
0
100
AcDbSymbolTable
 70
     0
  0
ENDTAB
  0
TABLE
  2
UCS
  5
7
330
0
100
AcDbSymbolTable
 70
     0
  0
ENDTAB
  0
TABLE
  2
APPID
  5
9
330
0
100
AcDbSymbolTable
 70
    10
  0
APPID
  5
12
330
9
100
AcDbSymbolTableRecord
100
AcDbRegAppTableRecord
  2
ACAD
 70
     0
  0
APPID
  5
3A0
330
9
100
AcDbSymbolTableRecord
100
AcDbRegAppTableRecord
  2
ACAD_MLEADERVER
 70
     0
  0
APPID
  5
3AD
330
9
100
AcDbSymbolTableRecord
100
AcDbRegAppTableRecord
  2
MCAD_NO_VIS
 70
     0
  0
APPID
  5
3AE
330
9
100
AcDbSymbolTableRecord
100
AcDbRegAppTableRecord
  2
ACAD_TEMP_GRAPHIC
 70
     0
  0
APPID
  5
3E0
330
9
100
AcDbSymbolTableRecord
100
AcDbRegAppTableRecord
  2
AD_DRAW
 70
     0
  0
APPID
  5
3E3
330
9
100
AcDbSymbolTableRecord
100
AcDbRegAppTableRecord
  2
ACATTRIBSERVICES
 70
     0
  0
APPID
  5
404
330
9
100
AcDbSymbolTableRecord
100
AcDbRegAppTableRecord
  2
DESIGNERASSEMBLIES
 70
     0
  0
APPID
  5
40A
330
9
100
AcDbSymbolTableRecord
100
AcDbRegAppTableRecord
  2
ACADM_DIM_EDIT
 70
     0
  0
APPID
  5
40B
330
9
100
AcDbSymbolTableRecord
100
AcDbRegAppTableRecord
  2
AMDT_DM_ADJ
 70
     0
  0
APPID
  5
452
330
9
100
AcDbSymbolTableRecord
100
AcDbRegAppTableRecord
  2
ACAD_DSTYLE_DIMARC_LENGTH_SYMBOL
 70
     0
  0
ENDTAB
  0
TABLE
  2
DIMSTYLE
  5
A
330
0
100
AcDbSymbolTable
 70
     9
100
AcDbDimStyleTable
 71
     1
340
27
  0
DIMSTYLE
105
27
102
{ACAD_REACTORS
330
29D
330
2C7
330
2E8
102
}
330
A
100
AcDbSymbolTableRecord
100
AcDbDimStyleTableRecord
  2
ISO-25
 70
     0
 41
2.5
 42
0.625
 43
3.75
 44
1.25
 73
     0
 74
     0
 77
     1
 78
     8
140
2.5
141
2.5
143
0.03937007874016
147
0.625
171
     3
172
     1
271
     2
272
     2
274
     3
278
    44
283
     0
284
     8
340
11
  0
DIMSTYLE
105
F0
330
A
100
AcDbSymbolTableRecord
100
AcDbDimStyleTableRecord
  2
Standard
 70
     0
340
11
  0
DIMSTYLE
105
430
330
A
100
AcDbSymbolTableRecord
100
AcDbDimStyleTableRecord
  2
AM_ISO
 70
     0
  4
"
 41
2.5
 42
1.0
 43
10.0
 44
1.0
 47
0.1
 48
0.1
 73
     0
 74
     0
 77
     1
 78
     8
 79
     2
140
3.5
141
0.0
143
0.0393701
146
0.71
147
1.5
172
     1
176
   256
177
   256
178
     2
271
     2
272
     3
274
     4
283
     0
284
     8
340
11
371
    -1
372
    -1
1001
ACAD_DSTYLE_DIMARC_LENGTH_SYMBOL
1070
   379
1070
     1
  0
DIMSTYLE
105
431
330
A
100
AcDbSymbolTableRecord
100
AcDbDimStyleTableRecord
  2
AM_ISO$3
 70
     0
  4
"
 41
2.5
 42
1.0
 43
10.0
 44
1.0
 47
0.1
 48
0.1
 73
     0
 77
     1
 78
     8
 79
     2
140
3.5
141
0.0
143
0.0393701
146
0.71
147
1.5
176
   256
177
   256
178
     2
271
     2
272
     3
274
     4
283
     0
284
     8
288
     1
289
     0
340
11
371
    -1
372
    -1
1001
ACAD_DSTYLE_DIMARC_LENGTH_SYMBOL
1070
   379
1070
     1
  0
DIMSTYLE
105
432
330
A
100
AcDbSymbolTableRecord
100
AcDbDimStyleTableRecord
  2
AM_ISO$4
 70
     0
  4
"
 41
2.5
 42
1.0
 43
10.0
 44
1.0
 47
0.1
 48
0.1
 73
     0
 77
     1
 78
     8
 79
     2
140
3.5
141
0.0
143
0.0393701
146
0.71
147
1.5
176
   256
177
   256
178
     2
271
     2
272
     3
274
     4
283
     0
284
     8
288
     1
289
     0
340
11
371
    -1
372
    -1
1001
ACAD_DSTYLE_DIMARC_LENGTH_SYMBOL
1070
   379
1070
     1
  0
DIMSTYLE
105
433
330
A
100
AcDbSymbolTableRecord
100
AcDbDimStyleTableRecord
  2
AM_ISO$6
 70
     0
  4
"
 41
2.5
 42
1.0
 43
10.0
 44
1.0
 47
0.1
 48
0.1
 73
     0
 74
     0
 78
     8
 79
     2
140
3.5
141
0.0
143
0.0393701
146
0.71
147
1.5
172
     1
176
   256
177
   256
178
     2
271
     2
272
     3
274
     4
283
     0
284
     8
340
11
371
    -1
372
    -1
1001
ACAD_DSTYLE_DIMARC_LENGTH_SYMBOL
1070
   379
1070
     1
  0
DIMSTYLE
105
434
330
A
100
AcDbSymbolTableRecord
100
AcDbDimStyleTableRecord
  2
AM_ISO$7
 70
     0
  4
"
 41
2.5
 42
1.0
 43
10.0
 44
1.0
 47
0.1
 48
0.1
 73
     0
 74
     0
 77
     1
 78
     8
 79
     2
140
5.0
141
0.0
143
0.0393701
146
0.71
147
1.5
172
     1
176
   256
177
   256
178
     2
271
     2
272
     3
274
     4
283
     0
284
     8
340
11
371
    -1
372
    -1
1001
ACAD_DSTYLE_DIMARC_LENGTH_SYMBOL
1070
   379
1070
     1
  0
DIMSTYLE
105
435
330
A
100
AcDbSymbolTableRecord
100
AcDbDimStyleTableRecord
  2
AM_ISO$SF
 70
     0
  4
"
 41
2.5
 42
1.0
 43
10.0
 44
1.0
 47
0.1
 48
0.1
 73
     0
 74
     0
 75
     1
 76
     1
 77
     1
 78
     8
 79
     2
140
3.5
141
0.0
143
0.0393701
146
0.71
147
1.5
172
     1
176
   256
177
   256
178
     2
271
     2
272
     3
274
     4
283
     0
284
     8
340
11
371
    -1
372
    -1
1001
ACAD_DSTYLE_DIMARC_LENGTH_SYMBOL
1070
   379
1070
     1
  0
DIMSTYLE
105
43A
330
A
100
AcDbSymbolTableRecord
100
AcDbDimStyleTableRecord
  2
AM_ISO$SH
 70
     0
  4
"
 41
2.5
 42
1.0
 43
10.0
 44
1.0
 47
0.1
 48
0.1
 73
     0
 74
     0
 75
     1
 76
     1
 77
     1
 78
     8
 79
     2
140
3.5
141
0.0
143
0.0393701
144
2.0
146
0.71
147
1.5
172
     1
173
     1
176
   256
177
   256
178
     2
271
     2
272
     3
274
     4
283
     0
284
     8
340
11
343
436
371
    -1
372
    -1
1001
ACAD_DSTYLE_DIMARC_LENGTH_SYMBOL
1070
   379
1070
     1
  0
ENDTAB
  0
TABLE
  2
BLOCK_RECORD
  5
1
330
0
100
AcDbSymbolTable
 70
     6
  0
BLOCK_RECORD
  5
1F
330
1
100
AcDbSymbolTableRecord
100
AcDbBlockTableRecord
  2
*Model_Space
340
22
  0
BLOCK_RECORD
  5
50
330
1
100
AcDbSymbolTableRecord
100
AcDbBlockTableRecord
  2
*Paper_Space
340
51
  0
BLOCK_RECORD
  5
55
330
1
100
AcDbSymbolTableRecord
100
AcDbBlockTableRecord
  2
*Paper_Space0
340
56
  0
BLOCK_RECORD
  5
29E
330
1
100
AcDbSymbolTableRecord
100
AcDbBlockTableRecord
  2
*D1
340
0
  0
BLOCK_RECORD
  5
2C8
330
1
100
AcDbSymbolTableRecord
100
AcDbBlockTableRecord
  2
*D2
340
0
  0
BLOCK_RECORD
  5
2E9
330
1
100
AcDbSymbolTableRecord
100
AcDbBlockTableRecord
  2
*D3
340
0
  0
BLOCK_RECORD
  5
436
330
1
100
AcDbSymbolTableRecord
100
AcDbBlockTableRecord
  2
GENAXEH
340
0
  0
ENDTAB
  0
ENDSEC
  0
SECTION
  2
BLOCKS
  0
BLOCK
  5
20
330
1F
100
AcDbEntity
  8
0
100
AcDbBlockBegin
  2
*Model_Space
 70
     0
 10
0.0
 20
0.0
 30
0.0
  3
*Model_Space
  1

  0
ENDBLK
  5
21
330
1F
100
AcDbEntity
  8
0
100
AcDbBlockEnd
  0
BLOCK
  5
52
330
50
100
AcDbEntity
 67
     1
  8
0
100
AcDbBlockBegin
  2
*Paper_Space
 70
     0
 10
0.0
 20
0.0
 30
0.0
  3
*Paper_Space
  1

  0
ENDBLK
  5
53
330
50
100
AcDbEntity
 67
     1
  8
0
100
AcDbBlockEnd
  0
BLOCK
  5
57
330
55
100
AcDbEntity
 67
     1
  8
0
100
AcDbBlockBegin
  2
*Paper_Space0
 70
     0
 10
0.0
 20
0.0
 30
0.0
  3
*Paper_Space0
  1

  0
ENDBLK
  5
58
330
55
100
AcDbEntity
 67
     1
  8
0
100
AcDbBlockEnd
  0
BLOCK
  5
2A8
330
29E
100
AcDbEntity
  8
0
100
AcDbBlockBegin
  2
*D1
 70
     1
 10
0.0
 20
0.0
 30
0.0
  3
*D1
  1

  0
LINE
  5
33B
330
29E
100
AcDbEntity
  8
0
 62
     0
370
    -2
100
AcDbLine
 10
150.625
 20
63.0
 30
0.0
 11
202.4725595022089
 21
62.99999999999999
 31
0.0
  0
LINE
  5
33C
330
29E
100
AcDbEntity
  8
0
 62
     0
370
    -2
100
AcDbLine
 10
150.625
 20
-12.0
 30
0.0
 11
202.4725595022089
 21
-12.00000000000001
 31
0.0
  0
LINE
  5
33D
330
29E
100
AcDbEntity
  8
0
 62
     0
370
    -2
100
AcDbLine
 10
201.2225595022089
 20
60.49999999999999
 30
0.0
 11
201.2225595022089
 21
-9.500000000000014
 31
0.0
  0
SOLID
  5
33E
330
29E
100
AcDbEntity
  8
0
 62
     0
100
AcDbTrace
 10
200.8058928355422
 20
60.49999999999999
 30
0.0
 11
201.6392261688755
 21
60.49999999999999
 31
0.0
 12
201.2225595022089
 22
62.99999999999999
 32
0.0
 13
201.2225595022089
 23
62.99999999999999
 33
0.0
  0
SOLID
  5
33F
330
29E
100
AcDbEntity
  8
0
 62
     0
100
AcDbTrace
 10
200.8058928355422
 20
-9.500000000000014
 30
0.0
 11
201.6392261688755
 21
-9.500000000000014
 31
0.0
 12
201.2225595022089
 22
-12.00000000000001
 32
0.0
 13
201.2225595022089
 23
-12.00000000000001
 33
0.0
  0
MTEXT
  5
340
330
29E
100
AcDbEntity
  8
0
 62
     0
100
AcDbMText
 10
195.5975595022088
 20
25.50000000000002
 30
0.0
 40
10.0
 41
0.0
 71
     5
 72
     1
  1
%%c75
 11
0.0000000000000001
 21
1.0
 31
0.0
 73
     1
 44
1.0
  0
POINT
  5
341
330
29E
100
AcDbEntity
  8
Defpoints
 62
     0
100
AcDbPoint
 10
150.0
 20
63.0
 30
0.0
  0
POINT
  5
342
330
29E
100
AcDbEntity
  8
Defpoints
 62
     0
100
AcDbPoint
 10
150.0
 20
-12.0
 30
0.0
  0
POINT
  5
343
330
29E
100
AcDbEntity
  8
Defpoints
 62
     0
100
AcDbPoint
 10
201.2225595022089
 20
-12.00000000000001
 30
0.0
  0
ENDBLK
  5
2A9
330
29E
100
AcDbEntity
  8
0
100
AcDbBlockEnd
  0
BLOCK
  5
2D2
330
2C8
100
AcDbEntity
  8
0
100
AcDbBlockBegin
  2
*D2
 70
     1
 10
0.0
 20
0.0
 30
0.0
  3
*D2
  1

  0
LINE
  5
329
330
2C8
100
AcDbEntity
  8
0
 62
     0
370
    -2
100
AcDbLine
 10
1.875
 20
49.0
 30
0.0
 11
-13.97211174549135
 21
49.0
 31
0.0
  0
LINE
  5
32A
330
2C8
100
AcDbEntity
  8
0
 62
     0
370
    -2
100
AcDbLine
 10
4.375
 20
-12.0
 30
0.0
 11
-13.97211174549136
 21
-11.99999999999999
 31
0.0
  0
LINE
  5
32B
330
2C8
100
AcDbEntity
  8
0
 62
     0
370
    -2
100
AcDbLine
 10
-12.72211174549135
 20
46.5
 30
0.0
 11
-12.72211174549136
 21
-9.499999999999992
 31
0.0
  0
SOLID
  5
32C
330
2C8
100
AcDbEntity
  8
0
 62
     0
100
AcDbTrace
 10
-13.13877841215801
 20
46.5
 30
0.0
 11
-12.30544507882468
 21
46.5
 31
0.0
 12
-12.72211174549135
 22
49.0
 32
0.0
 13
-12.72211174549135
 23
49.0
 33
0.0
  0
SOLID
  5
32D
330
2C8
100
AcDbEntity
  8
0
 62
     0
100
AcDbTrace
 10
-13.13877841215803
 20
-9.499999999999992
 30
0.0
 11
-12.30544507882469
 21
-9.499999999999992
 31
0.0
 12
-12.72211174549136
 22
-11.99999999999999
 32
0.0
 13
-12.72211174549136
 23
-11.99999999999999
 33
0.0
  0
MTEXT
  5
32E
330
2C8
100
AcDbEntity
  8
0
 62
     0
100
AcDbMText
 10
-18.34711174549136
 20
18.5
 30
0.0
 40
10.0
 41
0.0
 71
     5
 72
     1
  1
61
 11
0.0000000000000001
 21
1.0
 31
0.0
 73
     1
 44
1.0
  0
POINT
  5
32F
330
2C8
100
AcDbEntity
  8
Defpoints
 62
     0
100
AcDbPoint
 10
2.5
 20
49.0
 30
0.0
  0
POINT
  5
330
330
2C8
100
AcDbEntity
  8
Defpoints
 62
     0
100
AcDbPoint
 10
5.0
 20
-12.0
 30
0.0
  0
POINT
  5
331
330
2C8
100
AcDbEntity
  8
Defpoints
 62
     0
100
AcDbPoint
 10
-12.72211174549136
 20
-11.99999999999999
 30
0.0
  0
ENDBLK
  5
2D3
330
2C8
100
AcDbEntity
  8
0
100
AcDbBlockEnd
  0
BLOCK
  5
2F3
330
2E9
100
AcDbEntity
  8
0
100
AcDbBlockBegin
  2
*D3
 70
     1
 10
0.0
 20
0.0
 30
0.0
  3
*D3
  1

  0
LINE
  5
320
330
2E9
100
AcDbEntity
  8
0
 62
     0
370
    -2
100
AcDbLine
 10
49.62500000000001
 20
95.0
 30
0.0
 11
92.15437847157074
 21
95.0
 31
0.0
  0
LINE
  5
321
330
2E9
100
AcDbEntity
  8
0
 62
     0
370
    -2
100
AcDbLine
 10
70.625
 20
-12.0
 30
0.0
 11
92.15437847157074
 21
-12.00000000000001
 31
0.0
  0
LINE
  5
322
330
2E9
100
AcDbEntity
  8
0
 62
     0
370
    -2
100
AcDbLine
 10
90.90437847157074
 20
92.5
 30
0.0
 11
90.90437847157074
 21
-9.500000000000005
 31
0.0
  0
SOLID
  5
323
330
2E9
100
AcDbEntity
  8
0
 62
     0
100
AcDbTrace
 10
90.48771180490408
 20
92.5
 30
0.0
 11
91.32104513823742
 21
92.5
 31
0.0
 12
90.90437847157074
 22
95.0
 32
0.0
 13
90.90437847157074
 23
95.0
 33
0.0
  0
SOLID
  5
324
330
2E9
100
AcDbEntity
  8
0
 62
     0
100
AcDbTrace
 10
90.48771180490406
 20
-9.500000000000005
 30
0.0
 11
91.3210451382374
 21
-9.500000000000005
 31
0.0
 12
90.90437847157074
 22
-12.0
 32
0.0
 13
90.90437847157074
 23
-12.0
 33
0.0
  0
MTEXT
  5
325
330
2E9
100
AcDbEntity
  8
0
 62
     0
100
AcDbMText
 10
85.27937847157074
 20
41.50000000000001
 30
0.0
 40
10.0
 41
0.0
 71
     5
 72
     1
  1
107
 11
0.0000000000000001
 21
1.0
 31
0.0
 73
     1
 44
1.0
  0
POINT
  5
326
330
2E9
100
AcDbEntity
  8
Defpoints
 62
     0
100
AcDbPoint
 10
49.00000000000001
 20
95.0
 30
0.0
  0
POINT
  5
327
330
2E9
100
AcDbEntity
  8
Defpoints
 62
     0
100
AcDbPoint
 10
70.0
 20
-12.0
 30
0.0
  0
POINT
  5
328
330
2E9
100
AcDbEntity
  8
Defpoints
 62
     0
100
AcDbPoint
 10
90.90437847157074
 20
-12.0
 30
0.0
  0
ENDBLK
  5
2F4
330
2E9
100
AcDbEntity
  8
0
100
AcDbBlockEnd
  0
BLOCK
  5
438
330
436
100
AcDbEntity
  8
0
100
AcDbBlockBegin
  2
GENAXEH
 70
     0
 10
0.0
 20
0.0
 30
0.0
  3
GENAXEH
  1

  0
LINE
  5
437
330
436
100
AcDbEntity
  8
0
100
AcDbLine
 10
-1.0
 20
0.0
 30
0.0
 11
1.0
 21
0.0
 31
0.0
  0
ENDBLK
  5
439
330
436
100
AcDbEntity
  8
0
100
AcDbBlockEnd
  0
ENDSEC
  0
SECTION
  2
ENTITIES
  0
LWPOLYLINE
  5
6C
330
1F
100
AcDbEntity
  8
0
370
    40
100
AcDbPolyline
 90
        4
 70
     1
 43
0.0
 10
0.0
 20
0.0
 10
75.0
 20
0.0
 10
75.0
 20
46.0
 10
0.0
 20
46.0
  0
LINE
  5
6E
102
{ACAD_REACTORS
330
2DE
102
}
330
1F
100
AcDbEntity
  8
0
370
    40
100
AcDbLine
 10
2.5
 20
49.0
 30
0.0
 11
72.5
 21
49.0
 31
0.0
  0
LINE
  5
70
330
1F
100
AcDbEntity
  8
0
370
    40
100
AcDbLine
 10
0.0
 20
0.0
 30
0.0
 11
-0.0000000000000013
 21
-7.0
 31
0.0
  0
LINE
  5
71
330
1F
100
AcDbEntity
  8
0
370
    40
100
AcDbLine
 10
-0.0000000000000013
 20
-7.0
 30
0.0
 11
75.0
 21
-7.0
 31
0.0
  0
LINE
  5
72
330
1F
100
AcDbEntity
  8
0
370
    40
100
AcDbLine
 10
75.0
 20
-7.0
 30
0.0
 11
75.0
 21
0.0
 31
0.0
  0
LINE
  5
74
330
1F
100
AcDbEntity
  8
0
370
    40
100
AcDbLine
 10
2.5
 20
-10.0
 30
0.0
 11
72.5
 21
-10.0
 31
0.0
  0
LINE
  5
90
102
{ACAD_REACTORS
330
2DE
330
2FF
102
}
330
1F
100
AcDbEntity
  8
0
370
    40
100
AcDbLine
 10
5.0
 20
-12.0
 30
0.0
 11
70.0
 21
-12.0
 31
0.0
  0
LINE
  5
92
330
1F
100
AcDbEntity
  8
0
370
    40
100
AcDbLine
 10
25.0
 20
66.0
 30
0.0
 11
50.0
 21
66.0
 31
0.0
  0
LINE
  5
94
330
1F
100
AcDbEntity
  8
0
370
    40
100
AcDbLine
 10
25.0
 20
66.0
 30
0.0
 11
15.0
 21
49.0
 31
0.0
  0
LINE
  5
95
330
1F
100
AcDbEntity
  8
0
370
    40
100
AcDbLine
 10
50.0
 20
66.0
 30
0.0
 11
60.0
 21
49.0
 31
0.0
  0
LWPOLYLINE
  5
97
330
1F
100
AcDbEntity
  8
0
370
    40
100
AcDbPolyline
 90
        4
 70
     1
 43
0.0
 10
33.50000000000001
 20
71.0
 10
41.50000000000001
 20
71.0
 10
41.50000000000001
 20
68.79999999999999
 10
33.50000000000001
 20
68.79999999999999
  0
LINE
  5
99
330
1F
100
AcDbEntity
  8
0
370
    40
100
AcDbLine
 10
26.00000000000001
 20
74.0
 30
0.0
 11
49.00000000000001
 21
74.0
 31
0.0
  0
LINE
  5
9A
330
1F
100
AcDbEntity
  8
0
370
    40
100
AcDbLine
 10
26.00000000000001
 20
74.0
 30
0.0
 11
33.50000000000001
 21
71.0
 31
0.0
  0
LINE
  5
9B
330
1F
100
AcDbEntity
  8
0
370
    40
100
AcDbLine
 10
49.00000000000001
 20
74.0
 30
0.0
 11
41.50000000000001
 21
71.0
 31
0.0
  0
LINE
  5
9C
330
1F
100
AcDbEntity
  8
0
370
    40
100
AcDbLine
 10
26.00000000000001
 20
74.0
 30
0.0
 11
26.00000000000001
 21
95.0
 31
0.0
  0
LINE
  5
9D
330
1F
100
AcDbEntity
  8
0
370
    40
100
AcDbLine
 10
26.00000000000001
 20
95.0
 30
0.0
 11
49.00000000000001
 21
95.0
 31
0.0
  0
LINE
  5
9E
102
{ACAD_REACTORS
330
2FF
102
}
330
1F
100
AcDbEntity
  8
0
370
    40
100
AcDbLine
 10
49.00000000000001
 20
95.0
 30
0.0
 11
49.0
 21
74.0
 31
0.0
  0
ARC
  5
A1
330
1F
100
AcDbEntity
  8
0
370
    40
100
AcDbCircle
 10
37.75049391027897
 20
63.64964720694371
 30
0.0
 40
6.67778648762157
100
AcDbArc
 50
129.5322468906636
 51
159.3923975253892
  0
ARC
  5
A2
330
1F
100
AcDbEntity
  8
0
370
    40
100
AcDbCircle
 10
37.24950608972101
 20
63.64964720694372
 30
0.0
 40
6.67778648762157
100
AcDbArc
 50
20.60760247461043
 51
50.46775310933607
  0
ARC
  5
A3
330
1F
100
AcDbEntity
  8
0
370
    40
100
AcDbCircle
 10
4.204163141775141
 20
45.03819738185405
 30
0.0
 40
4.312777759047291
100
AcDbArc
 50
113.2748813288701
 51
167.1139764865996
  0
ARC
  5
A4
330
1F
100
AcDbEntity
  8
0
370
    40
100
AcDbCircle
 10
70.79583685822486
 20
45.03819738185405
 30
0.0
 40
4.312777759047291
100
AcDbArc
 50
12.88602351340045
 51
66.72511867112993
  0
LINE
  5
A5
330
1F
100
AcDbEntity
  8
0
370
    40
100
AcDbLine
 10
5.0
 20
-12.0
 30
0.0
 11
5.0
 21
-10.0
 31
0.0
  0
ARC
  5
A6
330
1F
100
AcDbEntity
  8
0
370
    40
100
AcDbCircle
 10
4.059430127950189
 20
-6.158808226708183
 30
0.0
 40
4.145669615775421
100
AcDbArc
 50
191.7070943546907
 51
247.9040478298394
  0
ARC
  5
A7
330
1F
100
AcDbEntity
  8
0
370
    40
100
AcDbCircle
 10
70.94056987204981
 20
-6.158808226708183
 30
0.0
 40
4.145669615775421
100
AcDbArc
 50
292.0959521701606
 51
348.2929056453092
  0
LINE
  5
A8
330
1F
100
AcDbEntity
  8
0
370
    40
100
AcDbLine
 10
70.0
 20
-12.0
 30
0.0
 11
70.0
 21
-10.0
 31
0.0
  0
LWPOLYLINE
  5
AB
330
1F
100
AcDbEntity
  8
0
100
AcDbPolyline
 90
        4
 70
     1
 43
0.0
 10
34.00000000000001
 20
74.0
 10
41.0
 20
74.0
 10
41.0
 20
79.0
 10
34.00000000000001
 20
79.0
  0
LINE
  5
AC
330
1F
100
AcDbEntity
  8
0
370
    40
100
AcDbLine
 10
73.39475285162786
 20
-9.5
 30
0.0
 11
82.0
 21
-9.5
 31
0.0
  0
ARC
  5
AD
330
1F
100
AcDbEntity
  8
0
370
    40
100
AcDbCircle
 10
82.0
 20
-5.5
 30
0.0
 40
4.0
100
AcDbArc
 50
270.0
 51
90.0
  0
LINE
  5
AF
330
1F
100
AcDbEntity
  8
0
370
    40
100
AcDbLine
 10
82.0
 20
-1.5
 30
0.0
 11
75.0
 21
-1.5
 31
0.0
  0
ARC
  5
CD
330
1F
100
AcDbEntity
  8
0
100
AcDbCircle
 10
83.49999999999999
 20
-5.5
 30
0.0
 40
1.5
100
AcDbArc
 50
270.0
 51
90.0
  0
ARC
  5
CF
330
1F
100
AcDbEntity
  8
0
100
AcDbCircle
 10
77.5
 20
-5.499999999999999
 30
0.0
 40
1.5
100
AcDbArc
 50
90.0
 51
270.0
  0
LINE
  5
D0
330
1F
100
AcDbEntity
  8
0
100
AcDbLine
 10
77.5
 20
-3.999999999999999
 30
0.0
 11
83.49999999999999
 21
-4.0
 31
0.0
  0
LINE
  5
D1
330
1F
100
AcDbEntity
  8
0
100
AcDbLine
 10
77.5
 20
-6.999999999999999
 30
0.0
 11
83.49999999999999
 21
-7.0
 31
0.0
  0
LWPOLYLINE
  5
18F
330
1F
100
AcDbEntity
  8
0
100
AcDbPolyline
 90
        4
 70
     1
 43
0.0
 10
153.3000000000001
 20
11.99999999999994
 10
146.7
 20
11.99999999999994
 10
146.7
 20
14.99999999999994
 10
153.3000000000001
 20
14.99999999999994
  0
LWPOLYLINE
  5
190
330
1F
100
AcDbEntity
  8
0
100
AcDbPolyline
 90
        4
 70
     1
 43
0.0
 10
146.7
 20
39.0
 10
153.2999999999999
 20
39.0
 10
153.2999999999999
 20
36.0
 10
146.7
 20
36.0
  0
CIRCLE
  5
191
330
1F
100
AcDbEntity
  8
0
100
AcDbCircle
 10
150.0
 20
25.5
 30
0.0
 40
8.0
  0
CIRCLE
  5
192
330
1F
100
AcDbEntity
  8
0
100
AcDbCircle
 10
150.0
 20
25.5
 30
0.0
 40
30.5
  0
CIRCLE
  5
193
330
1F
100
AcDbEntity
  8
0
370
    40
100
AcDbCircle
 10
150.0
 20
25.5
 30
0.0
 40
32.5
  0
CIRCLE
  5
194
330
1F
100
AcDbEntity
  8
0
100
AcDbCircle
 10
150.0
 20
25.5
 30
0.0
 40
34.5
  0
ARC
  5
195
102
{ACAD_REACTORS
330
2B4
102
}
330
1F
100
AcDbEntity
  8
0
370
    40
100
AcDbCircle
 10
150.0
 20
25.5
 30
0.0
 40
37.5
100
AcDbArc
 50
183.0572254284593
 51
176.9427745715406
  0
LWPOLYLINE
  5
196
330
1F
100
AcDbEntity
  8
0
100
AcDbPolyline
 90
        4
 70
     1
 43
0.0
 10
133.4217624468433
 20
18.27334519773436
 10
130.0930646398103
 20
17.19178571742205
 10
129.011505159498
 20
20.5204835244551
 10
132.340202966531
 20
21.60204300476741
  0
LWPOLYLINE
  5
197
330
1F
100
AcDbEntity
  8
0
370
    40
100
AcDbPolyline
 90
        4
 70
     1
 43
0.0
 10
131.9549792533789
 20
20.84599889836537
 10
129.7675492659001
 20
20.13525981130297
 10
130.4782883529624
 20
17.94782982382409
 10
132.6657183404413
 20
18.65856891088649
  0
LWPOLYLINE
  5
198
330
1F
100
AcDbEntity
  8
0
100
AcDbPolyline
 90
        4
 70
     1
 43
0.0
 10
134.2668741185994
 20
7.292000384446339
 10
131.7920003844465
 20
4.817126650293403
 10
129.3171266502935
 20
7.292000384446339
 10
131.7920003844465
 20
9.766874118599275
  0
LWPOLYLINE
  5
199
330
1F
100
AcDbEntity
  8
0
100
AcDbPolyline
 90
        4
 70
     1
 43
0.0
 10
130.0903903091735
 20
11.98445554337723
 10
127.059301395928
 20
10.23445554337723
 10
125.3093013959279
 20
13.26554445662276
 10
128.3403903091735
 20
15.01554445662276
  0
CIRCLE
  5
19A
330
1F
100
AcDbEntity
  8
0
370
    40
100
AcDbCircle
 10
127.6998458525508
 20
12.625
 30
0.0
 40
0.5
  0
LWPOLYLINE
  5
19B
330
1F
100
AcDbEntity
  8
0
370
    40
100
AcDbPolyline
 90
        4
 70
     1
 43
0.0
 10
128.1207750669028
 20
14.1959292143521
 10
126.1289166381986
 20
13.0459292143521
 10
127.2789166381986
 20
11.05407078564786
 10
129.2707750669028
 20
12.20407078564787
  0
LWPOLYLINE
  5
19C
330
1F
100
AcDbEntity
  8
0
370
    40
100
AcDbPolyline
 90
        4
 70
     1
 43
0.0
 10
125.9405827714211
 20
20.24386619071035
 10
123.7189533709562
 20
19.64858238697457
 10
124.314237174692
 20
17.42695298650966
 10
126.5358665751569
 20
18.02223679024547
  0
LWPOLYLINE
  5
19D
330
1F
100
AcDbEntity
  8
0
100
AcDbPolyline
 90
        4
 70
     1
 43
0.0
 10
127.2707134979918
 20
17.59797272153355
 10
123.8899731059801
 20
16.69210606367471
 10
122.9841064481212
 20
20.07284645568649
 10
126.364846840133
 20
20.9787131135453
  0
CIRCLE
  5
19E
330
1F
100
AcDbEntity
  8
0
370
    40
100
AcDbCircle
 10
125.1274099730566
 20
18.83540958861002
 30
0.0
 40
0.5
  0
LWPOLYLINE
  5
19F
330
1F
100
AcDbEntity
  8
0
370
    40
100
AcDbPolyline
 90
        4
 70
     1
 43
0.0
 10
143.1585689108865
 20
8.165718340441316
 10
142.4478298238241
 20
5.978288352962437
 10
144.635259811303
 20
5.267549265900044
 10
145.3459988983654
 20
7.454979253378922
  0
LWPOLYLINE
  5
1A0
330
1F
100
AcDbEntity
  8
0
100
AcDbPolyline
 90
        4
 70
     1
 43
0.0
 10
146.1020430047674
 20
7.840202966531052
 10
145.0204835244551
 20
4.511505159498
 10
141.6917857174221
 20
5.593064639810307
 10
142.7733451977344
 20
8.921762446843359
  0
LWPOLYLINE
  5
1A1
330
1F
100
AcDbEntity
  8
0
100
AcDbPolyline
 90
        4
 70
     1
 43
0.0
 10
140.8356451988917
 20
9.909069909739059
 10
138.7783968158679
 20
7.077510429426752
 10
135.9468373355556
 20
9.1347588124504
 10
138.0040857185794
 20
11.9663182927627
  0
CIRCLE
  5
1A2
330
1F
100
AcDbEntity
  8
0
370
    40
100
AcDbCircle
 10
131.7920003844464
 20
7.292000384446311
 30
0.0
 40
0.5
  0
LWPOLYLINE
  5
1A3
330
1F
100
AcDbEntity
  8
0
370
    40
100
AcDbPolyline
 90
        4
 70
     1
 43
0.0
 10
131.7920003844465
 20
8.918345981175434
 10
130.1656547877174
 20
7.292000384446339
 10
131.7920003844465
 20
5.665654787717301
 10
133.4183459811755
 20
7.292000384446339
  0
LWPOLYLINE
  5
1A4
330
1F
100
AcDbEntity
  8
0
370
    40
100
AcDbPolyline
 90
        4
 70
     1
 43
0.0
 10
136.704070785648
 20
4.770775066902842
 10
135.5540707856479
 20
2.778916638198609
 10
137.5459292143522
 20
1.628916638198575
 10
138.6959292143522
 20
3.620775066902808
  0
LWPOLYLINE
  5
1A5
330
1F
100
AcDbEntity
  8
0
100
AcDbPolyline
 90
        4
 70
     1
 43
0.0
 10
139.5155444566228
 20
3.840390309173471
 10
137.7655444566228
 20
0.809301395927946
 10
134.7344555433773
 20
2.559301395927946
 10
136.4844555433773
 20
5.590390309173471
  0
CIRCLE
  5
1A6
330
1F
100
AcDbEntity
  8
0
370
    40
100
AcDbCircle
 10
137.125
 20
3.199845852550652
 30
0.0
 40
0.5
  0
CIRCLE
  5
1A7
330
1F
100
AcDbEntity
  8
0
370
    40
100
AcDbCircle
 10
143.3354095886102
 20
0.6274099730565297
 30
0.0
 40
0.5
  0
LWPOLYLINE
  5
1A8
330
1F
100
AcDbEntity
  8
0
370
    40
100
AcDbPolyline
 90
        4
 70
     1
 43
0.0
 10
142.5222367902456
 20
2.035866575156859
 10
141.9269529865098
 20
-0.1857628253079895
 10
144.1485823869746
 20
-0.7810466290438001
 10
144.7438661907105
 20
1.440582771421048
  0
LWPOLYLINE
  5
1A9
330
1F
100
AcDbEntity
  8
0
100
AcDbPolyline
 90
        4
 70
     1
 43
0.0
 10
145.4787131135454
 20
1.864846840132997
 10
144.5728464556866
 20
-1.515893551878775
 10
141.1921060636749
 20
-0.6100268940199385
 10
142.0979727215336
 20
2.770713497991806
  0
CIRCLE
  5
1AA
330
1F
100
AcDbEntity
  8
0
370
    40
100
AcDbCircle
 10
143.8969143610948
 20
6.71663380317068
 30
0.0
 40
0.5
  0
CIRCLE
  5
1AB
330
1F
100
AcDbEntity
  8
0
370
    40
100
AcDbCircle
 10
138.3912412672237
 20
9.521914361094758
 30
0.0
 40
0.5
  0
LWPOLYLINE
  5
1AC
330
1F
100
AcDbEntity
  8
0
370
    40
100
AcDbPolyline
 90
        4
 70
     1
 43
0.0
 10
138.1368247638288
 20
11.12823694476225
 10
136.7849186835561
 20
9.267497857699879
 10
138.6456577706185
 20
7.915591777427209
 10
139.9975638508912
 20
9.77633086448958
  0
LWPOLYLINE
  5
1AD
330
1F
100
AcDbEntity
  8
0
370
    40
100
AcDbPolyline
 90
        4
 70
     1
 43
0.0
 10
134.2763308644897
 20
15.49756385089114
 10
132.4155917774273
 20
14.14565777061847
 10
133.7674978576999
 20
12.28491868355604
 10
135.6282369447624
 20
13.63682476382877
  0
LWPOLYLINE
  5
1AE
330
1F
100
AcDbEntity
  8
0
100
AcDbPolyline
 90
        4
 70
     1
 43
0.0
 10
136.4663182927628
 20
13.50408571857926
 10
133.6347588124505
 20
11.44683733555561
 10
131.5775104294268
 20
14.27839681586795
 10
134.4090699097391
 20
16.3356451988916
  0
CIRCLE
  5
1AF
330
1F
100
AcDbEntity
  8
0
370
    40
100
AcDbCircle
 10
134.0219143610948
 20
13.89124126722362
 30
0.0
 40
0.5
  0
CIRCLE
  5
1B0
330
1F
100
AcDbEntity
  8
0
370
    40
100
AcDbCircle
 10
131.2166338031708
 20
19.39691436109476
 30
0.0
 40
0.5
  0
LWPOLYLINE
  5
1B1
330
1F
100
AcDbEntity
  8
0
370
    40
100
AcDbPolyline
 90
        4
 70
     1
 43
0.0
 10
141.5147186257614
 20
15.60050506338825
 10
140.1005050633884
 20
17.01471862576136
 10
141.5147186257614
 20
18.42893218813447
 10
142.9289321881344
 20
17.01471862576136
  0
LWPOLYLINE
  5
1B2
330
1F
100
AcDbEntity
  8
0
370
    40
100
AcDbPolyline
 90
        4
 70
     1
 43
0.0
 10
138.695929214352
 20
47.3792249330971
 10
137.5459292143521
 20
49.37108336180134
 10
135.5540707856479
 20
48.22108336180133
 10
136.7040707856479
 20
46.2292249330971
  0
LWPOLYLINE
  5
1B3
330
1F
100
AcDbEntity
  8
0
100
AcDbPolyline
 90
        4
 70
     1
 43
0.0
 10
136.4844555433772
 20
45.40960969082647
 10
134.7344555433771
 20
48.44069860407199
 10
137.7655444566227
 20
50.19069860407199
 10
139.5155444566227
 20
47.15960969082646
  0
LWPOLYLINE
  5
1B4
330
1F
100
AcDbEntity
  8
0
370
    40
100
AcDbPolyline
 90
        4
 70
     1
 43
0.0
 10
144.7438661907105
 20
49.55941722857892
 10
144.1485823869746
 20
51.78104662904377
 10
141.9269529865097
 20
51.18576282530799
 10
142.5222367902455
 20
48.96413342484314
  0
LWPOLYLINE
  5
1B5
330
1F
100
AcDbEntity
  8
0
100
AcDbPolyline
 90
        4
 70
     1
 43
0.0
 10
142.0979727215336
 20
48.22928650200819
 10
141.1921060636748
 20
51.61002689401991
 10
144.5728464556865
 20
52.51589355187872
 10
145.4787131135454
 20
49.135153159867
  0
CIRCLE
  5
1B6
330
1F
100
AcDbEntity
  8
0
370
    40
100
AcDbCircle
 10
130.2499999999999
 20
25.49999999999994
 30
0.0
 40
0.5
  0
LWPOLYLINE
  5
1B7
330
1F
100
AcDbEntity
  8
0
370
    40
100
AcDbPolyline
 90
        4
 70
     1
 43
0.0
 10
131.4
 20
26.64999999999995
 10
129.0999999999999
 20
26.64999999999995
 10
129.0999999999999
 20
24.34999999999994
 10
131.4
 20
24.34999999999994
  0
LWPOLYLINE
  5
1B8
330
1F
100
AcDbEntity
  8
0
100
AcDbPolyline
 90
        4
 70
     1
 43
0.0
 10
132.0
 20
23.74999999999994
 10
128.4999999999999
 20
23.74999999999994
 10
128.4999999999999
 20
27.24999999999994
 10
132.0
 20
27.24999999999994
  0
LWPOLYLINE
  5
1B9
330
1F
100
AcDbEntity
  8
0
370
    40
100
AcDbPolyline
 90
        4
 70
     1
 43
0.0
 10
132.6657183404413
 20
32.34143108911343
 10
130.4782883529624
 20
33.05217017617582
 10
129.7675492659001
 20
30.86474018869694
 10
131.9549792533789
 20
30.15400110163455
  0
LWPOLYLINE
  5
1BA
330
1F
100
AcDbEntity
  8
0
100
AcDbPolyline
 90
        4
 70
     1
 43
0.0
 10
132.340202966531
 20
29.39795699523251
 10
129.011505159498
 20
30.47951647554481
 10
130.0930646398103
 20
33.80821428257787
 10
133.4217624468433
 20
32.72665480226556
  0
LWPOLYLINE
  5
1BB
330
1F
100
AcDbEntity
  8
0
100
AcDbPolyline
 90
        4
 70
     1
 43
0.0
 10
128.3403903091735
 20
35.98445554337718
 10
125.3093013959279
 20
37.73445554337718
 10
127.059301395928
 20
40.7655444566227
 10
130.0903903091735
 20
39.0155444566227
  0
LWPOLYLINE
  5
1BC
330
1F
100
AcDbEntity
  8
0
100
AcDbPolyline
 90
        4
 70
     1
 43
0.0
 10
131.7920003844465
 20
41.23312588140061
 10
129.3171266502935
 20
43.70799961555355
 10
131.7920003844465
 20
46.18287334970645
 10
134.2668741185994
 20
43.70799961555355
  0
LWPOLYLINE
  5
1BD
330
1F
100
AcDbEntity
  8
0
100
AcDbPolyline
 90
        4
 70
     1
 43
0.0
 10
126.0
 20
23.74999999999994
 10
122.5
 20
23.74999999999994
 10
122.5
 20
27.24999999999994
 10
126.0
 20
27.24999999999994
  0
LWPOLYLINE
  5
1BE
330
1F
100
AcDbEntity
  8
0
370
    40
100
AcDbPolyline
 90
        4
 70
     1
 43
0.0
 10
125.4
 20
26.64999999999995
 10
123.1
 20
26.64999999999995
 10
123.1
 20
24.34999999999994
 10
125.4
 20
24.34999999999994
  0
CIRCLE
  5
1BF
330
1F
100
AcDbEntity
  8
0
370
    40
100
AcDbCircle
 10
124.25
 20
25.49999999999994
 30
0.0
 40
0.5
  0
LWPOLYLINE
  5
1C0
330
1F
100
AcDbEntity
  8
0
370
    40
100
AcDbPolyline
 90
        4
 70
     1
 43
0.0
 10
126.5358665751569
 20
32.97776320975442
 10
124.314237174692
 20
33.5730470134902
 10
123.7189533709562
 20
31.35141761302535
 10
125.9405827714211
 20
30.75613380928956
  0
LWPOLYLINE
  5
1C1
330
1F
100
AcDbEntity
  8
0
100
AcDbPolyline
 90
        4
 70
     1
 43
0.0
 10
126.364846840133
 20
30.02128688645462
 10
122.9841064481212
 20
30.92715354431343
 10
123.8899731059801
 20
34.30789393632514
 10
127.2707134979918
 20
33.40202727846634
  0
CIRCLE
  5
1C2
330
1F
100
AcDbEntity
  8
0
370
    40
100
AcDbCircle
 10
125.1274099730565
 20
32.16459041138984
 30
0.0
 40
0.5
  0
CIRCLE
  5
1C3
330
1F
100
AcDbEntity
  8
0
370
    40
100
AcDbCircle
 10
127.6998458525507
 20
38.37499999999991
 30
0.0
 40
0.5
  0
LWPOLYLINE
  5
1C4
330
1F
100
AcDbEntity
  8
0
370
    40
100
AcDbPolyline
 90
        4
 70
     1
 43
0.0
 10
129.2707750669028
 20
38.79592921435204
 10
127.2789166381986
 20
39.94592921435208
 10
126.1289166381986
 20
37.95407078564784
 10
128.1207750669028
 20
36.80407078564781
  0
LWPOLYLINE
  5
1C5
330
1F
100
AcDbEntity
  8
0
370
    40
100
AcDbPolyline
 90
        4
 70
     1
 43
0.0
 10
140.1005050633883
 20
33.98528137423852
 10
141.5147186257614
 20
35.39949493661163
 10
142.9289321881345
 20
33.98528137423856
 10
141.5147186257614
 20
32.57106781186548
  0
LWPOLYLINE
  5
1C6
330
1F
100
AcDbEntity
  8
0
100
AcDbPolyline
 90
        4
 70
     1
 43
0.0
 10
134.409069909739
 20
34.66435480110832
 10
131.5775104294268
 20
36.72160318413197
 10
133.6347588124504
 20
39.55316266444427
 10
136.4663182927627
 20
37.49591428142063
  0
CIRCLE
  5
1C7
330
1F
100
AcDbEntity
  8
0
370
    40
100
AcDbCircle
 10
138.000048362871
 20
23.99996518806355
 30
0.0
 40
1.0
  0
CIRCLE
  5
1C8
330
1F
100
AcDbEntity
  8
0
370
    40
100
AcDbCircle
 10
138.000048362871
 20
26.99996518806356
 30
0.0
 40
1.0
  0
LWPOLYLINE
  5
1C9
330
1F
100
AcDbEntity
  8
0
100
AcDbPolyline
 90
        4
 70
     1
 43
0.0
 10
136.5
 20
22.19999999999993
 10
136.5
 20
28.79999999999993
 10
139.5
 20
28.79999999999993
 10
139.5
 20
22.19999999999993
  0
CIRCLE
  5
1CA
330
1F
100
AcDbEntity
  8
0
370
    40
100
AcDbCircle
 10
131.2166338031707
 20
31.60308563890519
 30
0.0
 40
0.5
  0
CIRCLE
  5
1CB
330
1F
100
AcDbEntity
  8
0
370
    40
100
AcDbCircle
 10
138.3912412672237
 20
41.47808563890515
 30
0.0
 40
0.5
  0
LWPOLYLINE
  5
1CC
330
1F
100
AcDbEntity
  8
0
370
    40
100
AcDbPolyline
 90
        4
 70
     1
 43
0.0
 10
139.9975638508912
 20
41.22366913551036
 10
138.6456577706185
 20
43.08440822257273
 10
136.7849186835561
 20
41.73250214230006
 10
138.1368247638288
 20
39.87176305523764
  0
LWPOLYLINE
  5
1CD
330
1F
100
AcDbEntity
  8
0
100
AcDbPolyline
 90
        4
 70
     1
 43
0.0
 10
138.0040857185793
 20
39.03368170723718
 10
135.9468373355556
 20
41.86524118754948
 10
138.7783968158679
 20
43.92248957057319
 10
140.8356451988916
 20
41.09093009026082
  0
LWPOLYLINE
  5
1CE
330
1F
100
AcDbEntity
  8
0
370
    40
100
AcDbPolyline
 90
        4
 70
     1
 43
0.0
 10
133.4183459811755
 20
43.70799961555355
 10
131.7920003844465
 20
45.33434521228258
 10
130.1656547877174
 20
43.70799961555355
 10
131.7920003844465
 20
42.08165401882445
  0
CIRCLE
  5
1CF
330
1F
100
AcDbEntity
  8
0
370
    40
100
AcDbCircle
 10
134.0219143610947
 20
37.10875873277633
 30
0.0
 40
0.5
  0
LWPOLYLINE
  5
1D0
330
1F
100
AcDbEntity
  8
0
370
    40
100
AcDbPolyline
 90
        4
 70
     1
 43
0.0
 10
135.6282369447623
 20
37.36317523617115
 10
133.7674978576999
 20
38.71508131644387
 10
132.4155917774272
 20
36.8543422293815
 10
134.2763308644896
 20
35.50243614910878
  0
CIRCLE
  5
1D1
330
1F
100
AcDbEntity
  8
0
370
    40
100
AcDbCircle
 10
131.7920003844464
 20
43.70799961555355
 30
0.0
 40
0.5
  0
CIRCLE
  5
1D2
330
1F
100
AcDbEntity
  8
0
370
    40
100
AcDbCircle
 10
137.1250000000001
 20
47.80015414744923
 30
0.0
 40
0.5
  0
LWPOLYLINE
  5
1D3
330
1F
100
AcDbEntity
  8
0
100
AcDbPolyline
 90
        4
 70
     1
 43
0.0
 10
142.7733451977344
 20
42.0782375531566
 10
141.6917857174221
 20
45.40693536018963
 10
145.0204835244551
 20
46.48849484050194
 10
146.1020430047674
 20
43.15979703346892
  0
LWPOLYLINE
  5
1D4
330
1F
100
AcDbEntity
  8
0
370
    40
100
AcDbPolyline
 90
        4
 70
     1
 43
0.0
 10
145.3459988983654
 20
43.54502074662105
 10
144.635259811303
 20
45.7324507340999
 10
142.4478298238241
 20
45.0217116470375
 10
143.1585689108865
 20
42.83428165955865
  0
CIRCLE
  5
1D5
330
1F
100
AcDbEntity
  8
0
370
    40
100
AcDbCircle
 10
143.8969143610948
 20
44.28336619682926
 30
0.0
 40
0.5
  0
CIRCLE
  5
1D6
330
1F
100
AcDbEntity
  8
0
370
    40
100
AcDbCircle
 10
143.3354095886101
 20
50.37259002694344
 30
0.0
 40
0.5
  0
LWPOLYLINE
  5
1D7
330
1F
100
AcDbEntity
  8
0
100
AcDbPolyline
 90
        4
 70
     1
 43
0.0
 10
167.659797033469
 20
21.60204300476744
 10
170.988494840502
 20
20.52048352445513
 10
169.9069353601896
 20
17.19178571742208
 10
166.5782375531567
 20
18.27334519773438
  0
LWPOLYLINE
  5
1D8
330
1F
100
AcDbEntity
  8
0
100
AcDbPolyline
 90
        4
 70
     1
 43
0.0
 10
165.5909300902609
 20
16.3356451988916
 10
168.4224895705732
 20
14.27839681586795
 10
166.3652411875496
 20
11.44683733555564
 10
163.5336817072373
 20
13.50408571857929
  0
LWPOLYLINE
  5
1D9
330
1F
100
AcDbEntity
  8
0
100
AcDbPolyline
 90
        4
 70
     1
 43
0.0
 10
161.9959142814207
 20
11.96631829276276
 10
164.0531626644443
 20
9.134758812450456
 10
161.221603184132
 20
7.077510429426752
 10
159.1643548011084
 20
9.909069909739116
  0
LWPOLYLINE
  5
1DA
330
1F
100
AcDbEntity
  8
0
370
    40
100
AcDbPolyline
 90
        4
 70
     1
 43
0.0
 10
161.3040707856479
 20
3.620775066902808
 10
162.4540707856479
 20
1.628916638198575
 10
164.4459292143521
 20
2.778916638198609
 10
163.2959292143521
 20
4.770775066902785
  0
LWPOLYLINE
  5
1DB
330
1F
100
AcDbEntity
  8
0
100
AcDbPolyline
 90
        4
 70
     1
 43
0.0
 10
163.5155444566228
 20
5.590390309173471
 10
165.2655444566228
 20
2.559301395927946
 10
162.2344555433773
 20
0.809301395927946
 10
160.4844555433773
 20
3.840390309173471
  0
LWPOLYLINE
  5
1DC
330
1F
100
AcDbEntity
  8
0
370
    40
100
AcDbPolyline
 90
        4
 70
     1
 43
0.0
 10
154.6540011016346
 20
7.454979253378951
 10
155.3647401886969
 20
5.267549265900072
 10
157.5521701761758
 20
5.978288352962465
 10
156.8414310891134
 20
8.165718340441344
  0
LWPOLYLINE
  5
1DD
330
1F
100
AcDbEntity
  8
0
100
AcDbPolyline
 90
        4
 70
     1
 43
0.0
 10
157.2266548022655
 20
8.921762446843388
 10
158.3082142825778
 20
5.593064639810336
 10
154.9795164755448
 20
4.511505159498028
 10
153.8979569952325
 20
7.84020296653108
  0
LWPOLYLINE
  5
1DE
330
1F
100
AcDbEntity
  8
0
100
AcDbPolyline
 90
        4
 70
     1
 43
0.0
 10
151.75
 20
7.499999999999943
 10
151.75
 20
3.999999999999943
 10
148.25
 20
3.999999999999943
 10
148.25
 20
7.499999999999943
  0
LWPOLYLINE
  5
1DF
330
1F
100
AcDbEntity
  8
0
370
    40
100
AcDbPolyline
 90
        4
 70
     1
 43
0.0
 10
155.2561338092896
 20
1.440582771420963
 10
155.8514176130254
 20
-0.7810466290438854
 10
158.0730470134902
 20
-0.1857628253080747
 10
157.4777632097545
 20
2.035866575156774
  0
LWPOLYLINE
  5
1E0
330
1F
100
AcDbEntity
  8
0
100
AcDbPolyline
 90
        4
 70
     1
 43
0.0
 10
157.9020272784663
 20
2.770713497991721
 10
158.8078939363251
 20
-0.6100268940199954
 10
155.4271535443134
 20
-1.515893551878832
 10
154.5212868864546
 20
1.864846840132884
  0
LWPOLYLINE
  5
1E1
330
1F
100
AcDbEntity
  8
0
370
    40
100
AcDbPolyline
 90
        4
 70
     1
 43
0.0
 10
148.85
 20
0.9000000000000056
 10
148.85
 20
-1.400000000000005
 10
151.1500000000001
 20
-1.400000000000005
 10
151.1500000000001
 20
0.9000000000000056
  0
LWPOLYLINE
  5
1E2
330
1F
100
AcDbEntity
  8
0
100
AcDbPolyline
 90
        4
 70
     1
 43
0.0
 10
151.75
 20
1.5
 10
151.75
 20
-2.0
 10
148.25
 20
-2.0
 10
148.25
 20
1.5
  0
CIRCLE
  5
1E3
330
1F
100
AcDbEntity
  8
0
370
    40
100
AcDbCircle
 10
150.0
 20
-0.25
 30
0.0
 40
0.5
  0
LWPOLYLINE
  5
1E4
330
1F
100
AcDbEntity
  8
0
370
    40
100
AcDbPolyline
 90
        4
 70
     1
 43
0.0
 10
148.85
 20
6.899999999999948
 10
148.85
 20
4.599999999999937
 10
151.1500000000001
 20
4.599999999999937
 10
151.1500000000001
 20
6.899999999999948
  0
CIRCLE
  5
1E5
330
1F
100
AcDbEntity
  8
0
370
    40
100
AcDbCircle
 10
150.0000000000001
 20
5.749999999999943
 30
0.0
 40
0.5
  0
CIRCLE
  5
1E6
330
1F
100
AcDbEntity
  8
0
370
    40
100
AcDbCircle
 10
156.6645904113899
 20
0.6274099730564729
 30
0.0
 40
0.5
  0
CIRCLE
  5
1E7
330
1F
100
AcDbEntity
  8
0
370
    40
100
AcDbCircle
 10
156.1030856389052
 20
6.716633803170708
 30
0.0
 40
0.5
  0
CIRCLE
  5
1E8
330
1F
100
AcDbEntity
  8
0
370
    40
100
AcDbCircle
 10
162.875
 20
3.199845852550737
 30
0.0
 40
0.5
  0
CIRCLE
  5
1E9
330
1F
100
AcDbEntity
  8
0
370
    40
100
AcDbCircle
 10
151.5000348119365
 20
13.50004836287101
 30
0.0
 40
1.0
  0
CIRCLE
  5
1EA
330
1F
100
AcDbEntity
  8
0
370
    40
100
AcDbCircle
 10
148.5000348119364
 20
13.50004836287101
 30
0.0
 40
1.0
  0
LWPOLYLINE
  5
1EB
330
1F
100
AcDbEntity
  8
0
370
    40
100
AcDbPolyline
 90
        4
 70
     1
 43
0.0
 10
160.0024361491088
 20
9.776330864489636
 10
161.3543422293816
 20
7.915591777427209
 10
163.2150813164439
 20
9.267497857699879
 10
161.8631752361713
 20
11.1282369447623
  0
CIRCLE
  5
1EC
330
1F
100
AcDbEntity
  8
0
370
    40
100
AcDbCircle
 10
161.6087587327764
 20
9.521914361094729
 30
0.0
 40
0.5
  0
LWPOLYLINE
  5
1ED
330
1F
100
AcDbEntity
  8
0
370
    40
100
AcDbPolyline
 90
        4
 70
     1
 43
0.0
 10
159.8994949366117
 20
17.01471862576139
 10
158.4852813742386
 20
15.60050506338828
 10
157.0710678118655
 20
17.01471862576136
 10
158.4852813742386
 20
18.42893218813444
  0
CIRCLE
  5
1EE
330
1F
100
AcDbEntity
  8
0
370
    40
100
AcDbCircle
 10
168.2079996155536
 20
7.292000384446424
 30
0.0
 40
0.5
  0
LWPOLYLINE
  5
1EF
330
1F
100
AcDbEntity
  8
0
370
    40
100
AcDbPolyline
 90
        4
 70
     1
 43
0.0
 10
166.5816540188245
 20
7.292000384446396
 10
168.2079996155536
 20
5.665654787717329
 10
169.8343452122826
 20
7.292000384446396
 10
168.2079996155536
 20
8.918345981175463
  0
LWPOLYLINE
  5
1F0
330
1F
100
AcDbEntity
  8
0
100
AcDbPolyline
 90
        4
 70
     1
 43
0.0
 10
168.2079996155536
 20
9.766874118599332
 10
170.6828733497066
 20
7.292000384446396
 10
168.2079996155536
 20
4.817126650293488
 10
165.7331258814007
 20
7.292000384446396
  0
CIRCLE
  5
1F1
330
1F
100
AcDbEntity
  8
0
370
    40
100
AcDbCircle
 10
172.3001541474492
 20
12.625
 30
0.0
 40
0.5
  0
LWPOLYLINE
  5
1F2
330
1F
100
AcDbEntity
  8
0
370
    40
100
AcDbPolyline
 90
        4
 70
     1
 43
0.0
 10
170.7292249330971
 20
12.20407078564784
 10
172.7210833618014
 20
11.05407078564786
 10
173.8710833618014
 20
13.0459292143521
 10
171.8792249330972
 20
14.19592921435208
  0
LWPOLYLINE
  5
1F3
330
1F
100
AcDbEntity
  8
0
100
AcDbPolyline
 90
        4
 70
     1
 43
0.0
 10
171.6596096908265
 20
15.01554445662273
 10
174.690698604072
 20
13.26554445662273
 10
172.940698604072
 20
10.23445554337721
 10
169.9096096908265
 20
11.98445554337721
  0
LWPOLYLINE
  5
1F4
330
1F
100
AcDbEntity
  8
0
370
    40
100
AcDbPolyline
 90
        4
 70
     1
 43
0.0
 10
164.3717630552377
 20
13.63682476382877
 10
166.2325021423001
 20
12.2849186835561
 10
167.5844082225728
 20
14.14565777061847
 10
165.7236691355105
 20
15.49756385089114
  0
CIRCLE
  5
1F5
330
1F
100
AcDbEntity
  8
0
370
    40
100
AcDbCircle
 10
165.9780856389053
 20
13.89124126722365
 30
0.0
 40
0.5
  0
LWPOLYLINE
  5
1F6
330
1F
100
AcDbEntity
  8
0
370
    40
100
AcDbPolyline
 90
        4
 70
     1
 43
0.0
 10
167.3342816595587
 20
18.65856891088651
 10
169.5217116470376
 20
17.94782982382412
 10
170.2324507341
 20
20.135259811303
 10
168.0450207466211
 20
20.84599889836539
  0
CIRCLE
  5
1F7
330
1F
100
AcDbEntity
  8
0
370
    40
100
AcDbCircle
 10
168.7833661968293
 20
19.39691436109473
 30
0.0
 40
0.5
  0
LWPOLYLINE
  5
1F8
330
1F
100
AcDbEntity
  8
0
100
AcDbPolyline
 90
        4
 70
     1
 43
0.0
 10
173.635153159867
 20
20.97871311354535
 10
177.0158935518788
 20
20.07284645568654
 10
176.1100268940199
 20
16.69210606367477
 10
172.7292865020082
 20
17.59797272153361
  0
LWPOLYLINE
  5
1F9
330
1F
100
AcDbEntity
  8
0
370
    40
100
AcDbPolyline
 90
        4
 70
     1
 43
0.0
 10
173.4641334248431
 20
18.02223679024553
 10
175.685762825308
 20
17.42695298650972
 10
176.2810466290438
 20
19.64858238697462
 10
174.059417228579
 20
20.24386619071041
  0
CIRCLE
  5
1FA
330
1F
100
AcDbEntity
  8
0
370
    40
100
AcDbCircle
 10
174.8725900269435
 20
18.83540958861008
 30
0.0
 40
0.5
  0
LWPOLYLINE
  5
1FB
330
1F
100
AcDbEntity
  8
0
370
    40
100
AcDbPolyline
 90
        4
 70
     1
 43
0.0
 10
157.4777632097544
 20
48.96413342484314
 10
158.0730470134902
 20
51.18576282530802
 10
155.8514176130253
 20
51.78104662904383
 10
155.2561338092895
 20
49.55941722857895
  0
LWPOLYLINE
  5
1FC
330
1F
100
AcDbEntity
  8
0
100
AcDbPolyline
 90
        4
 70
     1
 43
0.0
 10
154.5212868864546
 20
49.13515315986703
 10
155.4271535443134
 20
52.51589355187878
 10
158.8078939363251
 20
51.61002689401994
 10
157.9020272784663
 20
48.22928650200819
  0
LWPOLYLINE
  5
1FD
330
1F
100
AcDbEntity
  8
0
370
    40
100
AcDbPolyline
 90
        4
 70
     1
 43
0.0
 10
163.2959292143521
 20
46.22922493309713
 10
164.4459292143521
 20
48.22108336180136
 10
162.4540707856479
 20
49.37108336180134
 10
161.3040707856479
 20
47.37922493309716
  0
LWPOLYLINE
  5
1FE
330
1F
100
AcDbEntity
  8
0
100
AcDbPolyline
 90
        4
 70
     1
 43
0.0
 10
160.4844555433771
 20
47.1596096908265
 10
162.2344555433772
 20
50.19069860407203
 10
165.2655444566227
 20
48.44069860407202
 10
163.5155444566227
 20
45.40960969082649
  0
LWPOLYLINE
  5
1FF
330
1F
100
AcDbEntity
  8
0
100
AcDbPolyline
 90
        4
 70
     1
 43
0.0
 10
159.1643548011084
 20
41.09093009026088
 10
161.221603184132
 20
43.92248957057319
 10
164.0531626644443
 20
41.86524118754952
 10
161.9959142814207
 20
39.03368170723721
  0
LWPOLYLINE
  5
200
330
1F
100
AcDbEntity
  8
0
100
AcDbPolyline
 90
        4
 70
     1
 43
0.0
 10
163.5336817072373
 20
37.49591428142065
 10
166.3652411875496
 20
39.5531626644443
 10
168.4224895705732
 20
36.72160318413197
 10
165.5909300902609
 20
34.66435480110832
  0
LWPOLYLINE
  5
201
330
1F
100
AcDbEntity
  8
0
370
    40
100
AcDbPolyline
 90
        4
 70
     1
 43
0.0
 10
158.4852813742386
 20
35.39949493661169
 10
159.8994949366117
 20
33.98528137423858
 10
158.4852813742386
 20
32.57106781186548
 10
157.0710678118655
 20
33.98528137423858
  0
LWPOLYLINE
  5
202
330
1F
100
AcDbEntity
  8
0
100
AcDbPolyline
 90
        4
 70
     1
 43
0.0
 10
163.5
 20
28.80000000000001
 10
163.5
 20
22.20000000000002
 10
160.5
 20
22.20000000000002
 10
160.5
 20
28.80000000000001
  0
CIRCLE
  5
203
330
1F
100
AcDbEntity
  8
0
370
    40
100
AcDbCircle
 10
161.999951637129
 20
24.00003481193639
 30
0.0
 40
1.0
  0
CIRCLE
  5
204
330
1F
100
AcDbEntity
  8
0
370
    40
100
AcDbCircle
 10
161.999951637129
 20
27.00003481193639
 30
0.0
 40
1.0
  0
LWPOLYLINE
  5
205
330
1F
100
AcDbEntity
  8
0
370
    40
100
AcDbPolyline
 90
        4
 70
     1
 43
0.0
 10
156.8414310891134
 20
42.83428165955868
 10
157.5521701761759
 20
45.02171164703753
 10
155.3647401886969
 20
45.73245073409992
 10
154.6540011016346
 20
43.54502074662105
  0
LWPOLYLINE
  5
206
330
1F
100
AcDbEntity
  8
0
100
AcDbPolyline
 90
        4
 70
     1
 43
0.0
 10
153.8979569952325
 20
43.15979703346894
 10
154.9795164755448
 20
46.48849484050197
 10
158.3082142825779
 20
45.40693536018963
 10
157.2266548022655
 20
42.0782375531566
  0
CIRCLE
  5
207
330
1F
100
AcDbEntity
  8
0
370
    40
100
AcDbCircle
 10
151.4999651880636
 20
37.49995163712893
 30
0.0
 40
1.0
  0
CIRCLE
  5
208
330
1F
100
AcDbEntity
  8
0
370
    40
100
AcDbCircle
 10
148.4999651880636
 20
37.49995163712893
 30
0.0
 40
1.0
  0
LWPOLYLINE
  5
209
330
1F
100
AcDbEntity
  8
0
100
AcDbPolyline
 90
        4
 70
     1
 43
0.0
 10
148.25
 20
43.5
 10
148.25
 20
47.0
 10
151.75
 20
47.0
 10
151.75
 20
43.5
  0
LWPOLYLINE
  5
20A
330
1F
100
AcDbEntity
  8
0
370
    40
100
AcDbPolyline
 90
        4
 70
     1
 43
0.0
 10
151.15
 20
44.09999999999999
 10
151.15
 20
46.4
 10
148.85
 20
46.4
 10
148.85
 20
44.09999999999999
  0
CIRCLE
  5
20B
330
1F
100
AcDbEntity
  8
0
370
    40
100
AcDbCircle
 10
150.0
 20
45.25
 30
0.0
 40
0.5
  0
LWPOLYLINE
  5
20C
330
1F
100
AcDbEntity
  8
0
370
    40
100
AcDbPolyline
 90
        4
 70
     1
 43
0.0
 10
161.8631752361712
 20
39.87176305523767
 10
163.2150813164439
 20
41.73250214230003
 10
161.3543422293815
 20
43.08440822257273
 10
160.0024361491088
 20
41.22366913551036
  0
CIRCLE
  5
20D
330
1F
100
AcDbEntity
  8
0
370
    40
100
AcDbCircle
 10
161.6087587327764
 20
41.47808563890515
 30
0.0
 40
0.5
  0
CIRCLE
  5
20E
330
1F
100
AcDbEntity
  8
0
370
    40
100
AcDbCircle
 10
156.1030856389052
 20
44.28336619682929
 30
0.0
 40
0.5
  0
CIRCLE
  5
20F
330
1F
100
AcDbEntity
  8
0
370
    40
100
AcDbCircle
 10
162.875
 20
47.80015414744923
 30
0.0
 40
0.5
  0
LWPOLYLINE
  5
210
330
1F
100
AcDbEntity
  8
0
100
AcDbPolyline
 90
        4
 70
     1
 43
0.0
 10
168.0
 20
27.25
 10
171.5
 20
27.25
 10
171.5
 20
23.75
 10
168.0
 20
23.75
  0
LWPOLYLINE
  5
211
330
1F
100
AcDbEntity
  8
0
370
    40
100
AcDbPolyline
 90
        4
 70
     1
 43
0.0
 10
168.6
 20
24.35
 10
170.9000000000001
 20
24.35
 10
170.9000000000001
 20
26.65000000000001
 10
168.6
 20
26.65000000000001
  0
CIRCLE
  5
212
330
1F
100
AcDbEntity
  8
0
370
    40
100
AcDbCircle
 10
169.7500000000001
 20
25.49999999999997
 30
0.0
 40
0.5
  0
LWPOLYLINE
  5
213
330
1F
100
AcDbEntity
  8
0
370
    40
100
AcDbPolyline
 90
        4
 70
     1
 43
0.0
 10
168.0450207466211
 20
30.15400110163455
 10
170.2324507341
 20
30.86474018869694
 10
169.5217116470376
 20
33.05217017617579
 10
167.3342816595587
 20
32.34143108911343
  0
LWPOLYLINE
  5
214
330
1F
100
AcDbEntity
  8
0
100
AcDbPolyline
 90
        4
 70
     1
 43
0.0
 10
166.5782375531567
 20
32.72665480226556
 10
169.9069353601897
 20
33.80821428257787
 10
170.988494840502
 20
30.47951647554481
 10
167.659797033469
 20
29.39795699523251
  0
CIRCLE
  5
215
330
1F
100
AcDbEntity
  8
0
370
    40
100
AcDbCircle
 10
168.7833661968293
 20
31.60308563890519
 30
0.0
 40
0.5
  0
LWPOLYLINE
  5
216
330
1F
100
AcDbEntity
  8
0
370
    40
100
AcDbPolyline
 90
        4
 70
     1
 43
0.0
 10
174.6
 20
24.35
 10
176.9
 20
24.35
 10
176.9
 20
26.65000000000001
 10
174.6
 20
26.65000000000001
  0
LWPOLYLINE
  5
217
330
1F
100
AcDbEntity
  8
0
100
AcDbPolyline
 90
        4
 70
     1
 43
0.0
 10
174.0
 20
27.25
 10
177.5
 20
27.25
 10
177.5
 20
23.75
 10
174.0
 20
23.75
  0
CIRCLE
  5
218
330
1F
100
AcDbEntity
  8
0
370
    40
100
AcDbCircle
 10
175.75
 20
25.5
 30
0.0
 40
0.5
  0
LWPOLYLINE
  5
219
330
1F
100
AcDbEntity
  8
0
100
AcDbPolyline
 90
        4
 70
     1
 43
0.0
 10
172.7292865020082
 20
33.40202727846636
 10
176.1100268940199
 20
34.30789393632518
 10
177.0158935518788
 20
30.92715354431346
 10
173.635153159867
 20
30.02128688645465
  0
CIRCLE
  5
21A
330
1F
100
AcDbEntity
  8
0
370
    40
100
AcDbCircle
 10
174.8725900269435
 20
32.16459041138989
 30
0.0
 40
0.5
  0
LWPOLYLINE
  5
21B
330
1F
100
AcDbEntity
  8
0
370
    40
100
AcDbPolyline
 90
        4
 70
     1
 43
0.0
 10
174.0594172285789
 20
30.7561338092896
 10
176.2810466290438
 20
31.35141761302538
 10
175.685762825308
 20
33.57304701349022
 10
173.4641334248431
 20
32.97776320975444
  0
CIRCLE
  5
21C
330
1F
100
AcDbEntity
  8
0
370
    40
100
AcDbCircle
 10
172.3001541474493
 20
38.37499999999995
 30
0.0
 40
0.5
  0
LWPOLYLINE
  5
21D
330
1F
100
AcDbEntity
  8
0
370
    40
100
AcDbPolyline
 90
        4
 70
     1
 43
0.0
 10
171.8792249330971
 20
36.80407078564784
 10
173.8710833618014
 20
37.95407078564787
 10
172.7210833618014
 20
39.94592921435211
 10
170.7292249330971
 20
38.79592921435207
  0
LWPOLYLINE
  5
21E
330
1F
100
AcDbEntity
  8
0
100
AcDbPolyline
 90
        4
 70
     1
 43
0.0
 10
169.9096096908265
 20
39.01554445662274
 10
172.940698604072
 20
40.76554445662273
 10
174.690698604072
 20
37.73445554337721
 10
171.6596096908265
 20
35.98445554337721
  0
LWPOLYLINE
  5
21F
330
1F
100
AcDbEntity
  8
0
370
    40
100
AcDbPolyline
 90
        4
 70
     1
 43
0.0
 10
168.2079996155536
 20
42.08165401882448
 10
169.8343452122826
 20
43.70799961555351
 10
168.2079996155536
 20
45.33434521228261
 10
166.5816540188244
 20
43.70799961555351
  0
LWPOLYLINE
  5
220
330
1F
100
AcDbEntity
  8
0
100
AcDbPolyline
 90
        4
 70
     1
 43
0.0
 10
165.7331258814006
 20
43.70799961555351
 10
168.2079996155536
 20
46.18287334970645
 10
170.6828733497065
 20
43.70799961555351
 10
168.2079996155536
 20
41.23312588140064
  0
LWPOLYLINE
  5
221
330
1F
100
AcDbEntity
  8
0
370
    40
100
AcDbPolyline
 90
        4
 70
     1
 43
0.0
 10
165.7236691355105
 20
35.50243614910875
 10
167.5844082225728
 20
36.85434222938147
 10
166.2325021423001
 20
38.71508131644385
 10
164.3717630552377
 20
37.36317523617117
  0
CIRCLE
  5
222
330
1F
100
AcDbEntity
  8
0
370
    40
100
AcDbCircle
 10
165.9780856389052
 20
37.10875873277635
 30
0.0
 40
0.5
  0
CIRCLE
  5
223
330
1F
100
AcDbEntity
  8
0
370
    40
100
AcDbCircle
 10
168.2079996155536
 20
43.70799961555357
 30
0.0
 40
0.5
  0
LWPOLYLINE
  5
224
330
1F
100
AcDbEntity
  8
0
100
AcDbPolyline
 90
        4
 70
     1
 43
0.0
 10
148.25
 20
49.49999999999994
 10
148.25
 20
52.99999999999994
 10
151.75
 20
52.99999999999994
 10
151.75
 20
49.49999999999994
  0
LWPOLYLINE
  5
225
330
1F
100
AcDbEntity
  8
0
370
    40
100
AcDbPolyline
 90
        4
 70
     1
 43
0.0
 10
151.15
 20
50.09999999999994
 10
151.15
 20
52.39999999999994
 10
148.8499999999999
 20
52.39999999999994
 10
148.8499999999999
 20
50.09999999999994
  0
CIRCLE
  5
226
330
1F
100
AcDbEntity
  8
0
370
    40
100
AcDbCircle
 10
150.0
 20
51.24999999999994
 30
0.0
 40
0.5
  0
CIRCLE
  5
227
330
1F
100
AcDbEntity
  8
0
370
    40
100
AcDbCircle
 10
156.6645904113898
 20
50.3725900269435
 30
0.0
 40
0.5
  0
LWPOLYLINE
  5
228
330
1F
100
AcDbEntity
  8
0
370
    40
100
AcDbPolyline
 90
        4
 70
     1
 43
0.0
 10
101.5
 20
27.5
 10
115.5580198014109
 20
27.5
 10
115.5580198014109
 20
23.5
 10
101.5
 20
23.5
  0
DIMENSION
  5
29D
102
{ACAD_XDICTIONARY
360
2AA
102
}
102
{ACAD_REACTORS
330
2B4
102
}
330
1F
100
AcDbEntity
  8
0
100
AcDbDimension
  2
*D1
 10
201.2225595022089
 20
-12.00000000000001
 30
0.0
 11
195.5975595022088
 21
25.50000000000002
 31
0.0
 70
    32
  1
%%c<>
 71
     5
 42
75.0
  3
ISO-25
100
AcDbAlignedDimension
 13
150.0
 23
63.0
 33
0.0
 14
150.0
 24
-12.0
 34
0.0
 50
90.0
100
AcDbRotatedDimension
1001
ACAD
1000
DSTYLE
1002
{
1070
   140
1040
10.0
1070
   179
1070
     2
1070
   271
1070
     1
1070
   272
1070
     4
1070
   276
1070
     2
1002
}
  0
DIMENSION
  5
2C7
102
{ACAD_XDICTIONARY
360
2D4
102
}
102
{ACAD_REACTORS
330
2DE
102
}
330
1F
100
AcDbEntity
  8
0
100
AcDbDimension
  2
*D2
 10
-12.72211174549136
 20
-11.99999999999999
 30
0.0
 11
-18.34711174549136
 21
18.5
 31
0.0
 70
    32
 71
     5
 42
61.0
  3
ISO-25
100
AcDbAlignedDimension
 13
2.5
 23
49.0
 33
0.0
 14
5.0
 24
-12.0
 34
0.0
 50
90.0
100
AcDbRotatedDimension
1001
ACAD
1000
DSTYLE
1002
{
1070
   140
1040
10.0
1070
   179
1070
     2
1070
   271
1070
     4
1070
   272
1070
     4
1070
   276
1070
     2
1002
}
  0
DIMENSION
  5
2E8
102
{ACAD_XDICTIONARY
360
2F5
102
}
102
{ACAD_REACTORS
330
2FF
102
}
330
1F
100
AcDbEntity
  8
0
100
AcDbDimension
  2
*D3
 10
90.90437847157074
 20
-12.0
 30
0.0
 11
85.27937847157074
 21
41.50000000000001
 31
0.0
 70
    32
 71
     5
 42
107.0
  3
ISO-25
100
AcDbAlignedDimension
 13
49.00000000000001
 23
95.0
 33
0.0
 14
70.0
 24
-12.0
 34
0.0
 50
90.0
100
AcDbRotatedDimension
1001
ACAD
1000
DSTYLE
1002
{
1070
   140
1040
10.0
1070
    41
1040
2.5
1070
   179
1070
     2
1070
   271
1070
     4
1070
   272
1070
     4
1070
   276
1070
     2
1002
}
  0
MTEXT
  5
34A
330
1F
100
AcDbEntity
  8
0
100
AcDbMText
 10
1.677352871687446
 20
102.9235460138546
 30
0.0
 40
10.0
 41
59.18289999999999
 71
     1
 72
     5
  1
\A1;G{\H0.7x;\S1#2;}"
 73
     1
 44
1.0
  0
ENDSEC
  0
SECTION
  2
OBJECTS
  0
DICTIONARY
  5
C
330
0
100
AcDbDictionary
281
     1
  3
ACAD_BACKGROUND
350
3A4
  3
ACAD_COLOR
350
379
  3
ACAD_GROUP
350
D
  3
ACAD_LAYOUT
350
1A
  3
ACAD_MATERIAL
350
34F
  3
ACAD_MLEADERSTYLE
350
39E
  3
ACAD_MLINESTYLE
350
17
  3
ACAD_PLOTSETTINGS
350
19
  3
ACAD_PLOTSTYLENAME
350
E
  3
ACAD_SCALELIST
350
37C
  3
ACAD_TABLESTYLE
350
37A
  3
ACAD_VISUALSTYLE
350
368
  3
ACDB_RECOMPOSE_DATA
350
44D
  3
AcDbVariableDictionary
350
5E
  3
AcmDictionary
350
405
  3
AMG
350
3A8
  3
AMGSNAPSETTINGS
350
43E
  0
DICTIONARY
  5
445
330
10
100
AcDbDictionary
280
     1
281
     1
  3
ADSK_XREC_LAYER_RECONCILED
360
446
  0
DICTIONARY
  5
2AA
330
29D
100
AcDbDictionary
280
     1
281
     1
  3
ACAD_DIMASSOC
360
2B4
  0
DICTIONARY
  5
2D4
330
2C7
100
AcDbDictionary
280
     1
281
     1
  3
ACAD_DIMASSOC
360
2DE
  0
DICTIONARY
  5
2F5
330
2E8
100
AcDbDictionary
280
     1
281
     1
  3
ACAD_DIMASSOC
360
2FF
  0
DICTIONARY
  5
3A4
102
{ACAD_REACTORS
330
C
102
}
330
C
100
AcDbDictionary
281
     1
  0
DICTIONARY
  5
379
102
{ACAD_REACTORS
330
C
102
}
330
C
100
AcDbDictionary
281
     1
  0
DICTIONARY
  5
D
102
{ACAD_REACTORS
330
C
102
}
330
C
100
AcDbDictionary
281
     1
  0
DICTIONARY
  5
1A
102
{ACAD_REACTORS
330
C
102
}
330
C
100
AcDbDictionary
281
     1
  3
Layout1
350
51
  3
Layout2
350
56
  3
Model
350
22
  0
DICTIONARY
  5
34F
102
{ACAD_REACTORS
330
C
102
}
330
C
100
AcDbDictionary
281
     1
  3
ByBlock
350
358
  3
ByLayer
350
350
  3
Global
350
360
  0
DICTIONARY
  5
39E
102
{ACAD_REACTORS
330
C
102
}
330
C
100
AcDbDictionary
281
     1
  3
Standard
350
39F
  0
DICTIONARY
  5
17
102
{ACAD_REACTORS
330
C
102
}
330
C
100
AcDbDictionary
281
     1
  3
Standard
350
18
  0
DICTIONARY
  5
19
102
{ACAD_REACTORS
330
C
102
}
330
C
100
AcDbDictionary
281
     1
  0
ACDBDICTIONARYWDFLT
  5
E
102
{ACAD_REACTORS
330
C
102
}
330
C
100
AcDbDictionary
281
     1
  3
Normal
350
F
100
AcDbDictionaryWithDefault
340
F
  0
DICTIONARY
  5
37C
102
{ACAD_REACTORS
330
C
102
}
330
C
100
AcDbDictionary
281
     1
  3
A0
350
37D
  3
A1
350
37E
  3
A2
350
37F
  3
A3
350
380
  3
A4
350
381
  3
A5
350
382
  3
A6
350
383
  3
A7
350
384
  3
A8
350
385
  3
A9
350
386
  3
B0
350
387
  3
B1
350
388
  3
B2
350
389
  3
B3
350
38A
  3
B4
350
38B
  3
B5
350
38C
  3
B6
350
38D
  3
B7
350
38E
  3
B8
350
38F
  3
B9
350
390
  3
C0
350
391
  3
C1
350
392
  3
C2
350
393
  3
C3
350
394
  3
C4
350
395
  3
C5
350
396
  3
C6
350
397
  3
C7
350
398
  3
C8
350
399
  3
C9
350
39A
  3
D0
350
39B
  3
D1
350
39C
  3
D2
350
39D
  0
DICTIONARY
  5
37A
102
{ACAD_REACTORS
330
C
102
}
330
C
100
AcDbDictionary
281
     1
  3
Standard
350
37B
  0
DICTIONARY
  5
368
102
{ACAD_REACTORS
330
C
102
}
330
C
100
AcDbDictionary
281
     1
  3
*A1
350
3A3
  3
*A3
350
44A
  3
2dWireframe
350
36E
  3
3D Hidden
350
370
  3
3dWireframe
350
36F
  3
Basic
350
36D
  3
Brighten
350
374
  3
ColorChange
350
378
  3
Conceptual
350
371
  3
Dim
350
373
  3
Facepattern
350
377
  3
Flat
350
369
  3
FlatWithEdges
350
36A
  3
Gouraud
350
36B
  3
GouraudWithEdges
350
36C
  3
Linepattern
350
376
  3
Realistic
350
372
  3
Thicken
350
375
  0
XRECORD
  5
44D
102
{ACAD_REACTORS
330
C
102
}
330
C
100
AcDbXrecord
280
     1
 90
        1
330
37B
  0
DICTIONARY
  5
5E
102
{ACAD_REACTORS
330
C
102
}
330
C
100
AcDbDictionary
281
     1
  3
CANNOSCALE
350
449
  3
CMLEADERSTYLE
350
448
  3
CTABLESTYLE
350
447
  3
DIMASSOC
350
5F
  3
HIDETEXT
350
63
  0
DICTIONARY
  5
405
102
{ACAD_REACTORS
330
C
102
}
330
C
100
AcDbDictionary
281
     1
  3
AcmStdDictionary
350
410
  3
AMDTSECTSYM_ARROWCOLOR
350
427
  0
DICTIONARY
  5
3A8
102
{ACAD_REACTORS
330
C
102
}
330
C
100
AcDbDictionary
281
     1
  0
DICTIONARY
  5
43E
102
{ACAD_REACTORS
330
C
102
}
330
C
100
AcDbDictionary
281
     1
  0
XRECORD
  5
446
102
{ACAD_REACTORS
330
445
102
}
330
445
100
AcDbXrecord
280
     1
290
     1
  0
DIMASSOC
  5
2B4
102
{ACAD_REACTORS
330
2AA
102
}
330
2AA
100
AcDbDimAssoc
330
29D
 90
        3
 70
     0
 71
     0
  1
AcDbOsnapPointRef
 72
     5
331
195
 73
     2
 91
        0
 40
7.853981633974482
 10
150.0
 20
63.0
 30
0.0
 75
     0
  1
AcDbOsnapPointRef
 72
     5
331
195
 73
     2
 91
        0
 40
4.712388980384689
 10
150.0
 20
-12.0
 30
0.0
 75
     0
  0
DIMASSOC
  5
2DE
102
{ACAD_REACTORS
330
2D4
102
}
330
2D4
100
AcDbDimAssoc
330
2C7
 90
        3
 70
     0
 71
     0
  1
AcDbOsnapPointRef
 72
    13
331
6E
 73
     2
 91
        0
 40
0.0
 10
2.5
 20
49.0
 30
0.0
 75
     0
  1
AcDbOsnapPointRef
 72
    13
331
90
 73
     2
 91
        0
 40
0.0
 10
5.0
 20
-12.0
 30
0.0
 75
     0
  0
DIMASSOC
  5
2FF
102
{ACAD_REACTORS
330
2F5
102
}
330
2F5
100
AcDbDimAssoc
330
2E8
 90
        3
 70
     0
 71
     0
  1
AcDbOsnapPointRef
 72
    13
331
9E
 73
     2
 91
        0
 40
0.0
 10
49.00000000000001
 20
95.0
 30
0.0
 75
     0
  1
AcDbOsnapPointRef
 72
     1
331
90
 73
     2
 91
        0
 40
1.0
 10
70.0
 20
-12.0
 30
0.0
 75
     0
  0
LAYOUT
  5
51
102
{ACAD_REACTORS
330
1A
102
}
330
1A
100
AcDbPlotSettings
  1

  2
None
  4

  6

 40
0.0
 41
0.0
 42
0.0
 43
0.0
 44
0.0
 45
0.0
 46
0.0
 47
0.0
 48
0.0
 49
0.0
140
0.0
141
0.0
142
1.0
143
1.0
 70
   688
 72
     0
 73
     0
 74
     5
  7

 75
    16
147
1.0
 76
     0
 77
     2
 78
   300
148
0.0
149
0.0
100
AcDbLayout
  1
Layout1
 70
     1
 71
     1
 10
0.0
 20
0.0
 11
12.0
 21
9.0
 12
0.0
 22
0.0
 32
0.0
 14
0.0
 24
0.0
 34
0.0
 15
0.0
 25
0.0
 35
0.0
146
0.0
 13
0.0
 23
0.0
 33
0.0
 16
1.0
 26
0.0
 36
0.0
 17
0.0
 27
1.0
 37
0.0
 76
     0
330
50
  0
LAYOUT
  5
56
102
{ACAD_REACTORS
330
1A
102
}
330
1A
100
AcDbPlotSettings
  1

  2
None
  4

  6

 40
0.0
 41
0.0
 42
0.0
 43
0.0
 44
0.0
 45
0.0
 46
0.0
 47
0.0
 48
0.0
 49
0.0
140
0.0
141
0.0
142
1.0
143
1.0
 70
   688
 72
     0
 73
     0
 74
     5
  7

 75
    16
147
1.0
 76
     0
 77
     2
 78
   300
148
0.0
149
0.0
100
AcDbLayout
  1
Layout2
 70
     1
 71
     2
 10
0.0
 20
0.0
 11
12.0
 21
9.0
 12
0.0
 22
0.0
 32
0.0
 14
0.0
 24
0.0
 34
0.0
 15
0.0
 25
0.0
 35
0.0
146
0.0
 13
0.0
 23
0.0
 33
0.0
 16
1.0
 26
0.0
 36
0.0
 17
0.0
 27
1.0
 37
0.0
 76
     0
330
55
  0
LAYOUT
  5
22
102
{ACAD_REACTORS
330
1A
102
}
330
1A
100
AcDbPlotSettings
  1

  2
none_device
  4
ANSI_A_(8.50_x_11.00_Inches)
  6

 40
6.349999904632568
 41
19.04999923706055
 42
6.350006103515625
 43
19.04998779296875
 44
215.8999938964844
 45
279.3999938964844
 46
0.0
 47
0.0
 48
0.0
 49
0.0
140
0.0
141
0.0
142
1.0
143
78.436453180766
 70
 11952
 72
     0
 73
     1
 74
     0
  7

 75
     0
147
0.0127491741332998
 76
     0
 77
     2
 78
   300
148
0.0
149
0.0
100
AcDbLayout
  1
Model
 70
     1
 71
     0
 10
0.0
 20
0.0
 11
12.0
 21
9.0
 12
0.0
 22
0.0
 32
0.0
 14
0.0
 24
0.0
 34
0.0
 15
0.0
 25
0.0
 35
0.0
146
0.0
 13
0.0
 23
0.0
 33
0.0
 16
1.0
 26
0.0
 36
0.0
 17
0.0
 27
1.0
 37
0.0
 76
     0
330
1F
331
34D
  0
MATERIAL
  5
358
102
{ACAD_XDICTIONARY
360
359
102
}
102
{ACAD_REACTORS
330
34F
102
}
330
34F
100
AcDbMaterial
  1
ByBlock
 72
     0
 43
0.0008202099737533
 43
0.0
 43
0.0
 43
0.0
 43
0.0
 43
0.0008202099737533
 43
0.0
 43
0.0
 43
0.0
 43
0.0
 43
1.0
 43
0.0
 43
0.0
 43
0.0
 43
0.0
 43
1.0
 77
     0
 47
0.0008202099737533
 47
0.0
 47
0.0
 47
0.0
 47
0.0
 47
0.0008202099737533
 47
0.0
 47
0.0
 47
0.0
 47
0.0
 47
1.0
 47
0.0
 47
0.0
 47
0.0
 47
0.0
 47
1.0
171
     0
 49
0.0008202099737533
 49
0.0
 49
0.0
 49
0.0
 49
0.0
 49
0.0008202099737533
 49
0.0
 49
0.0
 49
0.0
 49
0.0
 49
1.0
 49
0.0
 49
0.0
 49
0.0
 49
0.0
 49
1.0
175
     0
142
0.0008202099737533
142
0.0
142
0.0
142
0.0
142
0.0
142
0.0008202099737533
142
0.0
142
0.0
142
0.0
142
0.0
142
1.0
142
0.0
142
0.0
142
0.0
142
0.0
142
1.0
179
     0
144
0.0008202099737533
144
0.0
144
0.0
144
0.0
144
0.0
144
0.0008202099737533
144
0.0
144
0.0
144
0.0
144
0.0
144
1.0
144
0.0
144
0.0
144
0.0
144
0.0
144
1.0
147
0.0008202099737533
147
0.0
147
0.0
147
0.0
147
0.0
147
0.0008202099737533
147
0.0
147
0.0
147
0.0
147
0.0
147
1.0
147
0.0
147
0.0
147
0.0
147
0.0
147
1.0
  0
MATERIAL
  5
350
102
{ACAD_XDICTIONARY
360
351
102
}
102
{ACAD_REACTORS
330
34F
102
}
330
34F
100
AcDbMaterial
  1
ByLayer
 72
     0
 43
0.0008202099737533
 43
0.0
 43
0.0
 43
0.0
 43
0.0
 43
0.0008202099737533
 43
0.0
 43
0.0
 43
0.0
 43
0.0
 43
1.0
 43
0.0
 43
0.0
 43
0.0
 43
0.0
 43
1.0
 77
     0
 47
0.0008202099737533
 47
0.0
 47
0.0
 47
0.0
 47
0.0
 47
0.0008202099737533
 47
0.0
 47
0.0
 47
0.0
 47
0.0
 47
1.0
 47
0.0
 47
0.0
 47
0.0
 47
0.0
 47
1.0
171
     0
 49
0.0008202099737533
 49
0.0
 49
0.0
 49
0.0
 49
0.0
 49
0.0008202099737533
 49
0.0
 49
0.0
 49
0.0
 49
0.0
 49
1.0
 49
0.0
 49
0.0
 49
0.0
 49
0.0
 49
1.0
175
     0
142
0.0008202099737533
142
0.0
142
0.0
142
0.0
142
0.0
142
0.0008202099737533
142
0.0
142
0.0
142
0.0
142
0.0
142
1.0
142
0.0
142
0.0
142
0.0
142
0.0
142
1.0
179
     0
144
0.0008202099737533
144
0.0
144
0.0
144
0.0
144
0.0
144
0.0008202099737533
144
0.0
144
0.0
144
0.0
144
0.0
144
1.0
144
0.0
144
0.0
144
0.0
144
0.0
144
1.0
147
0.0008202099737533
147
0.0
147
0.0
147
0.0
147
0.0
147
0.0008202099737533
147
0.0
147
0.0
147
0.0
147
0.0
147
1.0
147
0.0
147
0.0
147
0.0
147
0.0
147
1.0
  0
MATERIAL
  5
360
102
{ACAD_XDICTIONARY
360
361
102
}
102
{ACAD_REACTORS
330
34F
102
}
330
34F
100
AcDbMaterial
  1
Global
 72
     0
 43
0.0008202099737533
 43
0.0
 43
0.0
 43
0.0
 43
0.0
 43
0.0008202099737533
 43
0.0
 43
0.0
 43
0.0
 43
0.0
 43
1.0
 43
0.0
 43
0.0
 43
0.0
 43
0.0
 43
1.0
 77
     0
 47
0.0008202099737533
 47
0.0
 47
0.0
 47
0.0
 47
0.0
 47
0.0008202099737533
 47
0.0
 47
0.0
 47
0.0
 47
0.0
 47
1.0
 47
0.0
 47
0.0
 47
0.0
 47
0.0
 47
1.0
171
     0
 49
0.0008202099737533
 49
0.0
 49
0.0
 49
0.0
 49
0.0
 49
0.0008202099737533
 49
0.0
 49
0.0
 49
0.0
 49
0.0
 49
1.0
 49
0.0
 49
0.0
 49
0.0
 49
0.0
 49
1.0
175
     0
142
0.0008202099737533
142
0.0
142
0.0
142
0.0
142
0.0
142
0.0008202099737533
142
0.0
142
0.0
142
0.0
142
0.0
142
1.0
142
0.0
142
0.0
142
0.0
142
0.0
142
1.0
179
     0
144
0.0008202099737533
144
0.0
144
0.0
144
0.0
144
0.0
144
0.0008202099737533
144
0.0
144
0.0
144
0.0
144
0.0
144
1.0
144
0.0
144
0.0
144
0.0
144
0.0
144
1.0
147
0.0008202099737533
147
0.0
147
0.0
147
0.0
147
0.0
147
0.0008202099737533
147
0.0
147
0.0
147
0.0
147
0.0
147
1.0
147
0.0
147
0.0
147
0.0
147
0.0
147
1.0
  0
MLEADERSTYLE
  5
39F
102
{ACAD_REACTORS
330
39E
102
}
330
39E
100
AcDbMLeaderStyle
170
     2
171
     1
172
     0
 90
        2
 40
0.0
 41
0.0
173
     1
 91
-1056964608
340
14
 92
       -2
290
     1
 42
2.0
291
     1
 43
0.36
  3
Standard
 44
4.0
300

342
11
174
     1
178
     6
175
     1
176
     0
 93
-1056964608
 45
4.0
292
     0
297
     0
 46
4.0
 94
-1056964608
 47
1.0
 49
1.0
140
1.0
293
     1
141
0.0
294
     1
177
     0
142
1.0
295
     0
296
     0
143
0.125
1001
ACAD_MLEADERVER
1070
     2
  0
MLINESTYLE
  5
18
102
{ACAD_REACTORS
330
17
102
}
330
17
100
AcDbMlineStyle
  2
STANDARD
 70
     0
  3

 62
   256
 51
90.0
 52
90.0
 71
     2
 49
0.5
 62
   256
  6
BYLAYER
 49
-0.5
 62
   256
  6
BYLAYER
  0
ACDBPLACEHOLDER
  5
F
102
{ACAD_REACTORS
330
E
102
}
330
E
  0
SCALE
  5
37D
102
{ACAD_REACTORS
330
37C
102
}
330
37C
100
AcDbScale
 70
     0
300
1:1
140
1.0
141
1.0
290
     1
  0
SCALE
  5
37E
102
{ACAD_REACTORS
330
37C
102
}
330
37C
100
AcDbScale
 70
     0
300
1:2
140
1.0
141
2.0
290
     0
  0
SCALE
  5
37F
102
{ACAD_REACTORS
330
37C
102
}
330
37C
100
AcDbScale
 70
     0
300
1:4
140
1.0
141
4.0
290
     0
  0
SCALE
  5
380
102
{ACAD_REACTORS
330
37C
102
}
330
37C
100
AcDbScale
 70
     0
300
1:5
140
1.0
141
5.0
290
     0
  0
SCALE
  5
381
102
{ACAD_REACTORS
330
37C
102
}
330
37C
100
AcDbScale
 70
     0
300
1:8
140
1.0
141
8.0
290
     0
  0
SCALE
  5
382
102
{ACAD_REACTORS
330
37C
102
}
330
37C
100
AcDbScale
 70
     0
300
1:10
140
1.0
141
10.0
290
     0
  0
SCALE
  5
383
102
{ACAD_REACTORS
330
37C
102
}
330
37C
100
AcDbScale
 70
     0
300
1:16
140
1.0
141
16.0
290
     0
  0
SCALE
  5
384
102
{ACAD_REACTORS
330
37C
102
}
330
37C
100
AcDbScale
 70
     0
300
1:20
140
1.0
141
20.0
290
     0
  0
SCALE
  5
385
102
{ACAD_REACTORS
330
37C
102
}
330
37C
100
AcDbScale
 70
     0
300
1:30
140
1.0
141
30.0
290
     0
  0
SCALE
  5
386
102
{ACAD_REACTORS
330
37C
102
}
330
37C
100
AcDbScale
 70
     0
300
1:40
140
1.0
141
40.0
290
     0
  0
SCALE
  5
387
102
{ACAD_REACTORS
330
37C
102
}
330
37C
100
AcDbScale
 70
     0
300
1:50
140
1.0
141
50.0
290
     0
  0
SCALE
  5
388
102
{ACAD_REACTORS
330
37C
102
}
330
37C
100
AcDbScale
 70
     0
300
1:100
140
1.0
141
100.0
290
     0
  0
SCALE
  5
389
102
{ACAD_REACTORS
330
37C
102
}
330
37C
100
AcDbScale
 70
     0
300
2:1
140
2.0
141
1.0
290
     0
  0
SCALE
  5
38A
102
{ACAD_REACTORS
330
37C
102
}
330
37C
100
AcDbScale
 70
     0
300
4:1
140
4.0
141
1.0
290
     0
  0
SCALE
  5
38B
102
{ACAD_REACTORS
330
37C
102
}
330
37C
100
AcDbScale
 70
     0
300
8:1
140
8.0
141
1.0
290
     0
  0
SCALE
  5
38C
102
{ACAD_REACTORS
330
37C
102
}
330
37C
100
AcDbScale
 70
     0
300
10:1
140
10.0
141
1.0
290
     0
  0
SCALE
  5
38D
102
{ACAD_REACTORS
330
37C
102
}
330
37C
100
AcDbScale
 70
     0
300
100:1
140
100.0
141
1.0
290
     0
  0
SCALE
  5
38E
102
{ACAD_REACTORS
330
37C
102
}
330
37C
100
AcDbScale
 70
     0
300
1/128" = 1'-0"
140
0.0078125
141
12.0
290
     0
  0
SCALE
  5
38F
102
{ACAD_REACTORS
330
37C
102
}
330
37C
100
AcDbScale
 70
     0
300
1/64" = 1'-0"
140
0.015625
141
12.0
290
     0
  0
SCALE
  5
390
102
{ACAD_REACTORS
330
37C
102
}
330
37C
100
AcDbScale
 70
     0
300
1/32" = 1'-0"
140
0.03125
141
12.0
290
     0
  0
SCALE
  5
391
102
{ACAD_REACTORS
330
37C
102
}
330
37C
100
AcDbScale
 70
     0
300
1/16" = 1'-0"
140
0.0625
141
12.0
290
     0
  0
SCALE
  5
392
102
{ACAD_REACTORS
330
37C
102
}
330
37C
100
AcDbScale
 70
     0
300
3/32" = 1'-0"
140
0.09375
141
12.0
290
     0
  0
SCALE
  5
393
102
{ACAD_REACTORS
330
37C
102
}
330
37C
100
AcDbScale
 70
     0
300
1/8" = 1'-0"
140
0.125
141
12.0
290
     0
  0
SCALE
  5
394
102
{ACAD_REACTORS
330
37C
102
}
330
37C
100
AcDbScale
 70
     0
300
3/16" = 1'-0"
140
0.1875
141
12.0
290
     0
  0
SCALE
  5
395
102
{ACAD_REACTORS
330
37C
102
}
330
37C
100
AcDbScale
 70
     0
300
1/4" = 1'-0"
140
0.25
141
12.0
290
     0
  0
SCALE
  5
396
102
{ACAD_REACTORS
330
37C
102
}
330
37C
100
AcDbScale
 70
     0
300
3/8" = 1'-0"
140
0.375
141
12.0
290
     0
  0
SCALE
  5
397
102
{ACAD_REACTORS
330
37C
102
}
330
37C
100
AcDbScale
 70
     0
300
1/2" = 1'-0"
140
0.5
141
12.0
290
     0
  0
SCALE
  5
398
102
{ACAD_REACTORS
330
37C
102
}
330
37C
100
AcDbScale
 70
     0
300
3/4" = 1'-0"
140
0.75
141
12.0
290
     0
  0
SCALE
  5
399
102
{ACAD_REACTORS
330
37C
102
}
330
37C
100
AcDbScale
 70
     0
300
1" = 1'-0"
140
1.0
141
12.0
290
     0
  0
SCALE
  5
39A
102
{ACAD_REACTORS
330
37C
102
}
330
37C
100
AcDbScale
 70
     0
300
1-1/2" = 1'-0"
140
1.5
141
12.0
290
     0
  0
SCALE
  5
39B
102
{ACAD_REACTORS
330
37C
102
}
330
37C
100
AcDbScale
 70
     0
300
3" = 1'-0"
140
3.0
141
12.0
290
     0
  0
SCALE
  5
39C
102
{ACAD_REACTORS
330
37C
102
}
330
37C
100
AcDbScale
 70
     0
300
6" = 1'-0"
140
6.0
141
12.0
290
     0
  0
SCALE
  5
39D
102
{ACAD_REACTORS
330
37C
102
}
330
37C
100
AcDbScale
 70
     0
300
1'-0" = 1'-0"
140
12.0
141
12.0
290
     0
  0
TABLESTYLE
  5
37B
102
{ACAD_XDICTIONARY
360
44B
102
}
102
{ACAD_REACTORS
330
37A
102
}
330
37A
100
AcDbTableStyle
  3
Standard
 70
     0
 71
     0
 40
1.5
 41
1.5
280
     0
281
     0
  7
Standard
140
4.5
170
     2
 62
     0
 63
     7
283
     0
274
    -2
284
     1
 64
     0
275
    -2
285
     1
 65
     0
276
    -2
286
     1
 66
     0
277
    -2
287
     1
 67
     0
278
    -2
288
     1
 68
     0
279
    -2
289
     1
 69
     0
  7
Standard
140
6.0
170
     5
 62
     0
 63
     7
283
     0
274
    -2
284
     1
 64
     0
275
    -2
285
     1
 65
     0
276
    -2
286
     1
 66
     0
277
    -2
287
     1
 67
     0
278
    -2
288
     1
 68
     0
279
    -2
289
     1
 69
     0
  7
Standard
140
4.5
170
     5
 62
     0
 63
     7
283
     0
274
    -2
284
     1
 64
     0
275
    -2
285
     1
 65
     0
276
    -2
286
     1
 66
     0
277
    -2
287
     1
 67
     0
278
    -2
288
     1
 68
     0
279
    -2
289
     1
 69
     0
  0
VISUALSTYLE
  5
3A3
102
{ACAD_REACTORS
330
368
102
}
330
368
100
AcDbVisualStyle
  2
*
 70
    10
 71
     0
 72
     2
 73
     0
 90
        0
 40
-0.6
 41
-30.0
 62
     5
 63
     7
421
 16777215
 74
     1
 91
        6
 64
     7
 65
   257
 75
     1
175
     1
 42
1.0
 92
        0
 66
   257
 43
1.0
 76
     1
 77
     6
 78
     2
 67
     7
 79
     1
170
     0
171
     0
290
     0
174
     0
 93
        1
 44
0.0
173
     0
291
     0
 45
0.0
1001
ACAD
1000
AcDbSavedByObjectVersion
1070
     0
  0
VISUALSTYLE
  5
44A
102
{ACAD_REACTORS
330
368
102
}
330
368
100
AcDbVisualStyle
  2
*
 70
    10
 71
     0
 72
     2
 73
     0
 90
        0
 40
-0.6
 41
-30.0
 62
     5
 63
     7
421
 16777215
 74
     1
 91
        6
 64
     7
 65
   257
 75
     1
175
     1
 42
1.0
 92
        0
 66
   257
 43
1.0
 76
     1
 77
     6
 78
     2
 67
     7
 79
     1
170
     0
171
     0
290
     0
174
     0
 93
        1
 44
0.0
173
     0
291
     0
 45
0.0
1001
ACAD
1000
AcDbSavedByObjectVersion
1070
     0
  0
VISUALSTYLE
  5
36E
102
{ACAD_REACTORS
330
368
102
}
330
368
100
AcDbVisualStyle
  2
2dWireframe
 70
     4
 71
     0
 72
     2
 73
     0
 90
        0
 40
-0.6
 41
-30.0
 62
     5
 63
     7
421
 16777215
 74
     1
 91
        4
 64
     7
 65
   257
 75
     1
175
     1
 42
1.0
 92
        0
 66
   257
 43
1.0
 76
     1
 77
     6
 78
     2
 67
     7
 79
     5
170
     0
171
     0
290
     0
174
     0
 93
        1
 44
0.0
173
     0
291
     0
 45
0.0
1001
ACAD
1000
AcDbSavedByObjectVersion
1070
     0
  0
VISUALSTYLE
  5
370
102
{ACAD_REACTORS
330
368
102
}
330
368
100
AcDbVisualStyle
  2
3D Hidden
 70
     6
 71
     1
 72
     2
 73
     2
 90
        0
 40
-0.6
 41
-30.0
 62
     5
 63
     7
421
 16777215
 74
     2
 91
        2
 64
     7
 65
   257
 75
     2
175
     1
 42
40.0
 92
        0
 66
   257
 43
1.0
 76
     1
 77
     6
 78
     2
 67
     7
 79
     3
170
     0
171
     0
290
     0
174
     0
 93
        1
 44
0.0
173
     0
291
     0
 45
0.0
1001
ACAD
1000
AcDbSavedByObjectVersion
1070
     0
  0
VISUALSTYLE
  5
36F
102
{ACAD_REACTORS
330
368
102
}
330
368
100
AcDbVisualStyle
  2
3dWireframe
 70
     5
 71
     0
 72
     2
 73
     0
 90
        0
 40
-0.6
 41
-30.0
 62
     5
 63
     7
421
 16777215
 74
     1
 91
        4
 64
     7
 65
   257
 75
     1
175
     1
 42
1.0
 92
        0
 66
   257
 43
1.0
 76
     1
 77
     6
 78
     2
 67
     7
 79
     5
170
     0
171
     0
290
     0
174
     0
 93
        1
 44
0.0
173
     0
291
     0
 45
0.0
1001
ACAD
1000
AcDbSavedByObjectVersion
1070
     0
  0
VISUALSTYLE
  5
36D
102
{ACAD_REACTORS
330
368
102
}
330
368
100
AcDbVisualStyle
  2
Basic
 70
     7
 71
     1
 72
     0
 73
     1
 90
        0
 40
-0.6
 41
-30.0
 62
     5
 63
     7
421
 16777215
 74
     0
 91
        4
 64
     7
 65
   257
 75
     1
175
     1
 42
1.0
 92
        8
 66
     7
 43
1.0
 76
     1
 77
     6
 78
     2
 67
     7
 79
     5
170
     0
171
     0
290
     0
174
     0
 93
        1
 44
0.0
173
     0
291
     1
 45
0.0
1001
ACAD
1000
AcDbSavedByObjectVersion
1070
     0
  0
VISUALSTYLE
  5
374
102
{ACAD_REACTORS
330
368
102
}
330
368
100
AcDbVisualStyle
  2
Brighten
 70
    12
 71
     2
 72
     2
 73
     0
 90
        0
 40
-0.6
 41
-30.0
 62
     5
 63
     7
421
 16777215
 74
     1
 91
        4
 64
     7
 65
   257
 75
     1
175
     1
 42
1.0
 92
        8
 66
     7
 43
1.0
 76
     1
 77
     6
 78
     2
 67
     7
 79
     5
170
     0
171
     0
290
     0
174
     0
 93
        1
 44
50.0
173
     0
291
     1
 45
0.0
1001
ACAD
1000
AcDbSavedByObjectVersion
1070
     0
  0
VISUALSTYLE
  5
378
102
{ACAD_REACTORS
330
368
102
}
330
368
100
AcDbVisualStyle
  2
ColorChange
 70
    16
 71
     2
 72
     2
 73
     3
 90
        0
 40
-0.6
 41
-30.0
 62
     5
 63
     8
421
  8421504
 74
     1
 91
        4
 64
     7
 65
   257
 75
     1
175
     1
 42
1.0
 92
        8
 66
     8
424
  8421504
 43
1.0
 76
     1
 77
     6
 78
     2
 67
     7
 79
     5
170
     0
171
     0
290
     0
174
     0
 93
        1
 44
0.0
173
     0
291
     1
 45
0.0
1001
ACAD
1000
AcDbSavedByObjectVersion
1070
     0
  0
VISUALSTYLE
  5
371
102
{ACAD_REACTORS
330
368
102
}
330
368
100
AcDbVisualStyle
  2
Conceptual
 70
     9
 71
     3
 72
     2
 73
     0
 90
        0
 40
-0.6
 41
-30.0
 62
     5
 63
     7
421
 16777215
 74
     2
 91
        2
 64
     7
 65
   257
 75
     1
175
     1
 42
40.0
 92
        8
 66
     7
 43
1.0
 76
     1
 77
     6
 78
     2
 67
     7
 79
     3
170
     0
171
     0
290
     0
174
     0
 93
        1
 44
0.0
173
     0
291
     0
 45
0.0
1001
ACAD
1000
AcDbSavedByObjectVersion
1070
     0
  0
VISUALSTYLE
  5
373
102
{ACAD_REACTORS
330
368
102
}
330
368
100
AcDbVisualStyle
  2
Dim
 70
    11
 71
     2
 72
     2
 73
     0
 90
        0
 40
-0.6
 41
-30.0
 62
     5
 63
     7
421
 16777215
 74
     1
 91
        4
 64
     7
 65
   257
 75
     1
175
     1
 42
1.0
 92
        8
 66
     7
 43
1.0
 76
     1
 77
     6
 78
     2
 67
     7
 79
     5
170
     0
171
     0
290
     0
174
     0
 93
        1
 44
-50.0
173
     0
291
     1
 45
0.0
1001
ACAD
1000
AcDbSavedByObjectVersion
1070
     0
  0
VISUALSTYLE
  5
377
102
{ACAD_REACTORS
330
368
102
}
330
368
100
AcDbVisualStyle
  2
Facepattern
 70
    15
 71
     2
 72
     2
 73
     0
 90
        0
 40
-0.6
 41
-30.0
 62
     5
 63
     7
421
 16777215
 74
     1
 91
        4
 64
     7
 65
   257
 75
     1
175
     1
 42
1.0
 92
        8
 66
     7
 43
1.0
 76
     1
 77
     6
 78
     2
 67
     7
 79
     5
170
     0
171
     0
290
     0
174
     0
 93
        1
 44
0.0
173
     0
291
     1
 45
0.0
1001
ACAD
1000
AcDbSavedByObjectVersion
1070
     0
  0
VISUALSTYLE
  5
369
102
{ACAD_REACTORS
330
368
102
}
330
368
100
AcDbVisualStyle
  2
Flat
 70
     0
 71
     2
 72
     1
 73
     1
 90
        2
 40
-0.6
 41
30.0
 62
     5
 63
     7
421
 16777215
 74
     0
 91
        4
 64
     7
 65
   257
 75
     1
175
     1
 42
1.0
 92
        8
 66
     7
 43
1.0
 76
     1
 77
     6
 78
     2
 67
     7
 79
     5
170
     0
171
     0
290
     0
174
     0
 93
       13
 44
0.0
173
     0
291
     1
 45
0.0
1001
ACAD
1000
AcDbSavedByObjectVersion
1070
     0
  0
VISUALSTYLE
  5
36A
102
{ACAD_REACTORS
330
368
102
}
330
368
100
AcDbVisualStyle
  2
FlatWithEdges
 70
     1
 71
     2
 72
     1
 73
     1
 90
        2
 40
-0.6
 41
30.0
 62
     5
 63
     7
421
 16777215
 74
     1
 91
        4
 64
     7
 65
   257
 75
     1
175
     1
 42
1.0
 92
        0
 66
   257
 43
1.0
 76
     1
 77
     6
 78
     2
 67
     7
 79
     5
170
     0
171
     0
290
     0
174
     0
 93
       13
 44
0.0
173
     0
291
     1
 45
0.0
1001
ACAD
1000
AcDbSavedByObjectVersion
1070
     0
  0
VISUALSTYLE
  5
36B
102
{ACAD_REACTORS
330
368
102
}
330
368
100
AcDbVisualStyle
  2
Gouraud
 70
     2
 71
     2
 72
     2
 73
     1
 90
        2
 40
-0.6
 41
30.0
 62
     5
 63
     7
421
 16777215
 74
     0
 91
        4
 64
     7
 65
   257
 75
     1
175
     1
 42
1.0
 92
        0
 66
     7
 43
1.0
 76
     1
 77
     6
 78
     2
 67
     7
 79
     5
170
     0
171
     0
290
     0
174
     0
 93
       13
 44
0.0
173
     0
291
     1
 45
0.0
1001
ACAD
1000
AcDbSavedByObjectVersion
1070
     0
  0
VISUALSTYLE
  5
36C
102
{ACAD_REACTORS
330
368
102
}
330
368
100
AcDbVisualStyle
  2
GouraudWithEdges
 70
     3
 71
     2
 72
     2
 73
     1
 90
        2
 40
-0.6
 41
30.0
 62
     5
 63
     7
421
 16777215
 74
     1
 91
        4
 64
     7
 65
   257
 75
     1
175
     1
 42
1.0
 92
        0
 66
   257
 43
1.0
 76
     1
 77
     6
 78
     2
 67
     7
 79
     5
170
     0
171
     0
290
     0
174
     0
 93
       13
 44
0.0
173
     0
291
     1
 45
0.0
1001
ACAD
1000
AcDbSavedByObjectVersion
1070
     0
  0
VISUALSTYLE
  5
376
102
{ACAD_REACTORS
330
368
102
}
330
368
100
AcDbVisualStyle
  2
Linepattern
 70
    14
 71
     2
 72
     2
 73
     0
 90
        0
 40
-0.6
 41
-30.0
 62
     5
 63
     7
421
 16777215
 74
     1
 91
        4
 64
     7
 65
   257
 75
     7
175
     7
 42
1.0
 92
        8
 66
     7
 43
1.0
 76
     1
 77
     6
 78
     2
 67
     7
 79
     5
170
     0
171
     0
290
     0
174
     0
 93
        1
 44
0.0
173
     0
291
     1
 45
0.0
1001
ACAD
1000
AcDbSavedByObjectVersion
1070
     0
  0
VISUALSTYLE
  5
372
102
{ACAD_REACTORS
330
368
102
}
330
368
100
AcDbVisualStyle
  2
Realistic
 70
     8
 71
     2
 72
     2
 73
     0
 90
        0
 40
-0.6
 41
-30.0
 62
     5
 63
     7
421
 16777215
 74
     1
 91
        0
 64
     7
 65
   257
 75
     1
175
     1
 42
1.0
 92
        8
 66
     8
424
  7895160
 43
1.0
 76
     1
 77
     6
 78
     2
 67
     7
 79
     5
170
     0
171
     0
290
     0
174
     0
 93
       13
 44
0.0
173
     0
291
     0
 45
0.0
1001
ACAD
1000
AcDbSavedByObjectVersion
1070
     0
  0
VISUALSTYLE
  5
375
102
{ACAD_REACTORS
330
368
102
}
330
368
100
AcDbVisualStyle
  2
Thicken
 70
    13
 71
     2
 72
     2
 73
     0
 90
        0
 40
-0.6
 41
-30.0
 62
     5
 63
     7
421
 16777215
 74
     1
 91
        4
 64
     7
 65
   257
 75
     1
175
     1
 42
1.0
 92
       12
 66
     7
 43
1.0
 76
     1
 77
     6
 78
     2
 67
     7
 79
     5
170
     0
171
     0
290
     0
174
     0
 93
        1
 44
0.0
173
     0
291
     1
 45
0.0
1001
ACAD
1000
AcDbSavedByObjectVersion
1070
     0
  0
DICTIONARYVAR
  5
449
102
{ACAD_REACTORS
330
5E
102
}
330
5E
100
DictionaryVariables
280
     0
  1
1:1
  0
DICTIONARYVAR
  5
448
102
{ACAD_REACTORS
330
5E
102
}
330
5E
100
DictionaryVariables
280
     0
  1
STANDARD
  0
DICTIONARYVAR
  5
447
102
{ACAD_REACTORS
330
5E
102
}
330
5E
100
DictionaryVariables
280
     0
  1
STANDARD
  0
DICTIONARYVAR
  5
5F
102
{ACAD_REACTORS
330
5E
102
}
330
5E
100
DictionaryVariables
280
     0
  1
2
  0
DICTIONARYVAR
  5
63
102
{ACAD_REACTORS
330
5E
102
}
330
5E
100
DictionaryVariables
280
     0
  1
1
  0
DICTIONARY
  5
410
102
{ACAD_REACTORS
330
405
102
}
330
405
100
AcDbDictionary
281
     1
  0
XRECORD
  5
427
102
{ACAD_REACTORS
330
405
102
}
330
405
100
AcDbXrecord
280
     1
 90
-1023410169
  0
DICTIONARY
  5
359
330
358
100
AcDbDictionary
280
     1
281
     1
  3
ACAD_XREC_ROUNDTRIP
360
44F
  3
BUMPTILE
360
35B
  3
DIFFUSETILE
360
35A
  3
OPACITYTILE
360
35E
  3
REFLECTIONTILE
360
35D
  3
REFRACTIONTILE
360
35F
  3
SPECULARTILE
360
35C
  0
DICTIONARY
  5
351
330
350
100
AcDbDictionary
280
     1
281
     1
  3
ACAD_XREC_ROUNDTRIP
360
44E
  3
BUMPTILE
360
353
  3
DIFFUSETILE
360
352
  3
OPACITYTILE
360
356
  3
REFLECTIONTILE
360
355
  3
REFRACTIONTILE
360
357
  3
SPECULARTILE
360
354
  0
DICTIONARY
  5
361
330
360
100
AcDbDictionary
280
     1
281
     1
  3
ACAD_XREC_ROUNDTRIP
360
450
  3
BUMPTILE
360
363
  3
DIFFUSETILE
360
362
  3
OPACITYTILE
360
366
  3
REFLECTIONTILE
360
365
  3
REFRACTIONTILE
360
367
  3
SPECULARTILE
360
364
  0
DICTIONARY
  5
44B
330
37B
100
AcDbDictionary
280
     1
281
     1
  3
ACAD_ROUNDTRIP_2008_TABLESTYLE_CELLSTYLEMAP
360
44C
  3
ACAD_XREC_ROUNDTRIP
360
451
  0
XRECORD
  5
44F
102
{ACAD_REACTORS
330
359
102
}
330
359
100
AcDbXrecord
280
     1
102
MATERIAL
148
0.0
149
0.0
149
0.0
 93
        0
 94
      127
282
     0
 72
     0
 77
     0
171
     0
175
     0
179
     0
273
     0
  0
XRECORD
  5
35B
102
{ACAD_REACTORS
330
359
102
}
330
359
100
AcDbXrecord
280
     1
270
     1
271
     1
  0
XRECORD
  5
35A
102
{ACAD_REACTORS
330
359
102
}
330
359
100
AcDbXrecord
280
     1
270
     1
271
     1
  0
XRECORD
  5
35E
102
{ACAD_REACTORS
330
359
102
}
330
359
100
AcDbXrecord
280
     1
270
     1
271
     1
  0
XRECORD
  5
35D
102
{ACAD_REACTORS
330
359
102
}
330
359
100
AcDbXrecord
280
     1
270
     1
271
     1
  0
XRECORD
  5
35F
102
{ACAD_REACTORS
330
359
102
}
330
359
100
AcDbXrecord
280
     1
270
     1
271
     1
  0
XRECORD
  5
35C
102
{ACAD_REACTORS
330
359
102
}
330
359
100
AcDbXrecord
280
     1
270
     1
271
     1
  0
XRECORD
  5
44E
102
{ACAD_REACTORS
330
351
102
}
330
351
100
AcDbXrecord
280
     1
102
MATERIAL
148
0.0
149
0.0
149
0.0
 93
        0
 94
      127
282
     0
 72
     0
 77
     0
171
     0
175
     0
179
     0
273
     0
  0
XRECORD
  5
353
102
{ACAD_REACTORS
330
351
102
}
330
351
100
AcDbXrecord
280
     1
270
     1
271
     1
  0
XRECORD
  5
352
102
{ACAD_REACTORS
330
351
102
}
330
351
100
AcDbXrecord
280
     1
270
     1
271
     1
  0
XRECORD
  5
356
102
{ACAD_REACTORS
330
351
102
}
330
351
100
AcDbXrecord
280
     1
270
     1
271
     1
  0
XRECORD
  5
355
102
{ACAD_REACTORS
330
351
102
}
330
351
100
AcDbXrecord
280
     1
270
     1
271
     1
  0
XRECORD
  5
357
102
{ACAD_REACTORS
330
351
102
}
330
351
100
AcDbXrecord
280
     1
270
     1
271
     1
  0
XRECORD
  5
354
102
{ACAD_REACTORS
330
351
102
}
330
351
100
AcDbXrecord
280
     1
270
     1
271
     1
  0
XRECORD
  5
450
102
{ACAD_REACTORS
330
361
102
}
330
361
100
AcDbXrecord
280
     1
102
MATERIAL
148
0.0
149
0.0
149
0.0
 93
        0
 94
      127
282
     0
 72
     0
 77
     0
171
     0
175
     0
179
     0
273
     0
  0
XRECORD
  5
363
102
{ACAD_REACTORS
330
361
102
}
330
361
100
AcDbXrecord
280
     1
270
     1
271
     1
  0
XRECORD
  5
362
102
{ACAD_REACTORS
330
361
102
}
330
361
100
AcDbXrecord
280
     1
270
     1
271
     1
  0
XRECORD
  5
366
102
{ACAD_REACTORS
330
361
102
}
330
361
100
AcDbXrecord
280
     1
270
     1
271
     1
  0
XRECORD
  5
365
102
{ACAD_REACTORS
330
361
102
}
330
361
100
AcDbXrecord
280
     1
270
     1
271
     1
  0
XRECORD
  5
367
102
{ACAD_REACTORS
330
361
102
}
330
361
100
AcDbXrecord
280
     1
270
     1
271
     1
  0
XRECORD
  5
364
102
{ACAD_REACTORS
330
361
102
}
330
361
100
AcDbXrecord
280
     1
270
     1
271
     1
  0
CELLSTYLEMAP
  5
44C
102
{ACAD_REACTORS
330
44B
102
}
330
44B
100
AcDbCellStyleMap
 90
        3
300
CELLSTYLE
  1
TABLEFORMAT_BEGIN
 90
        5
170
     1
 91
        0
 92
    32768
 62
   257
 93
        1
300
CONTENTFORMAT
  1
CONTENTFORMAT_BEGIN
 90
        0
 91
        0
 92
      512
 93
        0
300

 40
0.0
140
1.0
 94
        5
 62
     0
340
11
144
6.0
309
CONTENTFORMAT_END
171
     1
301
MARGIN
  1
CELLMARGIN_BEGIN
 40
1.5
 40
1.5
 40
1.5
 40
1.5
 40
4.5
 40
4.5
309
CELLMARGIN_END
 94
        6
 95
        1
302
GRIDFORMAT
  1
GRIDFORMAT_BEGIN
 90
        0
 91
        1
 62
     0
 92
       -2
340
0
 93
        0
 40
1.125
309
GRIDFORMAT_END
 95
        2
302
GRIDFORMAT
  1
GRIDFORMAT_BEGIN
 90
        0
 91
        1
 62
     0
 92
       -2
340
0
 93
        0
 40
1.125
309
GRIDFORMAT_END
 95
        4
302
GRIDFORMAT
  1
GRIDFORMAT_BEGIN
 90
        0
 91
        1
 62
     0
 92
       -2
340
0
 93
        0
 40
1.125
309
GRIDFORMAT_END
 95
        8
302
GRIDFORMAT
  1
GRIDFORMAT_BEGIN
 90
        0
 91
        1
 62
     0
 92
       -2
340
0
 93
        0
 40
1.125
309
GRIDFORMAT_END
 95
       16
302
GRIDFORMAT
  1
GRIDFORMAT_BEGIN
 90
        0
 91
        1
 62
     0
 92
       -2
340
0
 93
        0
 40
1.125
309
GRIDFORMAT_END
 95
       32
302
GRIDFORMAT
  1
GRIDFORMAT_BEGIN
 90
        0
 91
        1
 62
     0
 92
       -2
340
0
 93
        0
 40
1.125
309
GRIDFORMAT_END
309
TABLEFORMAT_END
  1
CELLSTYLE_BEGIN
 90
        1
 91
        1
300
_TITLE
309
CELLSTYLE_END
300
CELLSTYLE
  1
TABLEFORMAT_BEGIN
 90
        5
170
     1
 91
        0
 92
        0
 62
   257
 93
        1
300
CONTENTFORMAT
  1
CONTENTFORMAT_BEGIN
 90
        0
 91
        0
 92
      512
 93
        0
300

 40
0.0
140
1.0
 94
        5
 62
     0
340
11
144
4.5
309
CONTENTFORMAT_END
171
     1
301
MARGIN
  1
CELLMARGIN_BEGIN
 40
1.5
 40
1.5
 40
1.5
 40
1.5
 40
4.5
 40
4.5
309
CELLMARGIN_END
 94
        6
 95
        1
302
GRIDFORMAT
  1
GRIDFORMAT_BEGIN
 90
        0
 91
        1
 62
     0
 92
       -2
340
0
 93
        0
 40
1.125
309
GRIDFORMAT_END
 95
        2
302
GRIDFORMAT
  1
GRIDFORMAT_BEGIN
 90
        0
 91
        1
 62
     0
 92
       -2
340
0
 93
        0
 40
1.125
309
GRIDFORMAT_END
 95
        4
302
GRIDFORMAT
  1
GRIDFORMAT_BEGIN
 90
        0
 91
        1
 62
     0
 92
       -2
340
0
 93
        0
 40
1.125
309
GRIDFORMAT_END
 95
        8
302
GRIDFORMAT
  1
GRIDFORMAT_BEGIN
 90
        0
 91
        1
 62
     0
 92
       -2
340
0
 93
        0
 40
1.125
309
GRIDFORMAT_END
 95
       16
302
GRIDFORMAT
  1
GRIDFORMAT_BEGIN
 90
        0
 91
        1
 62
     0
 92
       -2
340
0
 93
        0
 40
1.125
309
GRIDFORMAT_END
 95
       32
302
GRIDFORMAT
  1
GRIDFORMAT_BEGIN
 90
        0
 91
        1
 62
     0
 92
       -2
340
0
 93
        0
 40
1.125
309
GRIDFORMAT_END
309
TABLEFORMAT_END
  1
CELLSTYLE_BEGIN
 90
        2
 91
        1
300
_HEADER
309
CELLSTYLE_END
300
CELLSTYLE
  1
TABLEFORMAT_BEGIN
 90
        5
170
     1
 91
        0
 92
        0
 62
   257
 93
        1
300
CONTENTFORMAT
  1
CONTENTFORMAT_BEGIN
 90
        0
 91
        0
 92
      512
 93
        0
300

 40
0.0
140
1.0
 94
        2
 62
     0
340
11
144
4.5
309
CONTENTFORMAT_END
171
     1
301
MARGIN
  1
CELLMARGIN_BEGIN
 40
1.5
 40
1.5
 40
1.5
 40
1.5
 40
4.5
 40
4.5
309
CELLMARGIN_END
 94
        6
 95
        1
302
GRIDFORMAT
  1
GRIDFORMAT_BEGIN
 90
        0
 91
        1
 62
     0
 92
       -2
340
0
 93
        0
 40
1.125
309
GRIDFORMAT_END
 95
        2
302
GRIDFORMAT
  1
GRIDFORMAT_BEGIN
 90
        0
 91
        1
 62
     0
 92
       -2
340
0
 93
        0
 40
1.125
309
GRIDFORMAT_END
 95
        4
302
GRIDFORMAT
  1
GRIDFORMAT_BEGIN
 90
        0
 91
        1
 62
     0
 92
       -2
340
0
 93
        0
 40
1.125
309
GRIDFORMAT_END
 95
        8
302
GRIDFORMAT
  1
GRIDFORMAT_BEGIN
 90
        0
 91
        1
 62
     0
 92
       -2
340
0
 93
        0
 40
1.125
309
GRIDFORMAT_END
 95
       16
302
GRIDFORMAT
  1
GRIDFORMAT_BEGIN
 90
        0
 91
        1
 62
     0
 92
       -2
340
0
 93
        0
 40
1.125
309
GRIDFORMAT_END
 95
       32
302
GRIDFORMAT
  1
GRIDFORMAT_BEGIN
 90
        0
 91
        1
 62
     0
 92
       -2
340
0
 93
        0
 40
1.125
309
GRIDFORMAT_END
309
TABLEFORMAT_END
  1
CELLSTYLE_BEGIN
 90
        3
 91
        2
300
_DATA
309
CELLSTYLE_END
  0
XRECORD
  5
451
102
{ACAD_REACTORS
330
44B
102
}
330
44B
100
AcDbXrecord
280
     1
102
ACAD_ROUNDTRIP_PRE2007_TABLESTYLE
 90
      512
 91
        0
  1

 92
      512
 93
        0
  2

 94
      512
 95
        0
  3

  0
ENDSEC
  0
EOF
